вход на сайт

Имя пользователя :
Пароль :

Восстановление пароля Регистрация
(2009) Blue Stone / Messages (New Age, Ethereal Voice) [FLAC (tracks+.cue), lossless]
Рейтинг:
(голосов: 1)



[img]{THEME}/images/logopost.png[/img]



Исполнитель:Blue Stone
Альбом: Messages
Страна: USA
Тип альбома: Студийный
Год выпуска: 2009
Жанр: New Age, Ethereal Voice
Формат:FLAC (tracks+.cue)
Битрейт: lossless
Продолжительность: 1:13:24Те, кто следит за развитием всей электронной музыки, и стиля энигматик в частности - уже хорошо знают этот проект. Роберту Смиту и Биллу Уотерсу удается сделать то, что дано не каждому исполнителю - совместить красивые мелодии, современную подачу материала, виртуозные аранжировки и притягательную атмосферу мистицизма. Приглашенные для записи альбома певицы помогли создать совершенные по красоте, лиричные и мягкие, эмоциональные и чувственные произведения, с экзотической (и в чем-то даже с сюрреалистической) тональностью. Здесь стильный чиллаут дополнен этническими мотивами, готика взаимодействует с фортепианными мелодиями и переливами колокольчиков, а голоса прекрасных сирен комфортно ложатся на ритм перкуссии.Tреклист:
01. Midnight Tides || 05:48
02. Open Your Eyes || 05:36
03. Deja Vu || 04:20
04. Hang On || 04:19
05. Wait for the Sun || 04:22
06. Open Sky || 05:38
07. Lotus Bloom || 04:54
08. Come Alive || 04:18
09. Moving Forward|| 05:07
10. Ancient Echoes || 05:09
11. Set me in the Sun || 04:19
12. Bridges || 05:37
13. The Silence || 04:20
14. Hypnotized || 06:27
15. Messages || 03:05Лог EAC ▼
TextExact Audio Copy V1.0 beta 2 from 29. April 2011

Отчёт EAC об извлечении, выполненном 8. ноября 2011, 0:03

Blue Stone / Messages

Дисковод: TSSTcorpCDDVDW SE-S084D Adapter: 1 ID: 0

Режим чтения : Достоверность
Использование точного потока : Да
Отключение кэша аудио : Да
Использование указателей C2 : Нет

Коррекция смещения при чтении : 6
Способность читать области Lead-in и Lead-out : Нет
Заполнение пропущенных сэмплов тишиной : Да
Удаление блоков с тишиной в начале и конце : Нет
При вычислениях CRC использовались нулевые сэмплы : Да
Интерфейс : Встроенный Win32-интерфейс для Win NT/2000
Обработка зазоров : Добавлено к предыдущему треку

Выходной формат : Пользовательский кодировщик
Выбранный битрейт : 896 kBit/s
Качество : Высокий
Добавление ID3-тега : Да
Утилита сжатия : C:Program FilesExact Audio CopyFlacflac.exe
Дополнительные параметры : -V -8 -T "Genre=%genre%" -T "Artist=%artist%" -T "Title=%title%" -T "Album=%albumtitle%" -T "Date=%year%" -T "Tracknumber=%tracknr%" -T "Comment=%comment%" %source%


TOC извлечённого CD

Трек | Старт | Длительность | Начальный сектор | Конечный сектор
---------------------------------------------------------------------
1 | 0:00.00 | 5:48.00 | 0 | 26099
2 | 5:48.00 | 5:36.41 | 26100 | 51340
3 | 11:24.41 | 4:20.42 | 51341 | 70882&
a98940830953f54a3ec4c6af1d003eb17022de07(2009) Blue Stone / Messages (New Age, Ethereal Voice) [FLAC (tracks+.cue), lossless] (2009) Blue Stone / Messages (New Age, Ethereal Voice) [FLAC (tracks+.cue), lossless] " />

Аплоадер: Админ, дата: 8-11-2011, 22:50, торрент скачан: 359 раз

Понравилась раздача? Посмотрите эти:
  • (2012) Sting / Fifteen Healing Bites (Pop Rock)(Chinese Dragon) [FLAC (trac ...
  • (2013) Linkin Park / Underground XIII (Alternative Rock) [FLAC (tracks+.cue ...
  • (2013) Смоки Мо / Младший (Rap, Hip-Hop) [FLAC (Tracks+.Cue), Lossless]
  • (2013) Маклай и Ганза / Статус-Кво (Rap, Hip-Hop) [FLAC (Tracks+.Cue), Loss ...
  • (2013) Lone / Спутник (Rap, Hip-Hop) [FLAC (Tracks+.Cue), Lossless]
  • (2013) Стриж / Игристое (Rap, Hip-Hop) [FLAC (Tracks+.Cue), Lossless]
  • (2013) Баста / Баста 4 (Rap, Hip-Hop) [FLAC (Tracks+.Cue), Lossless]
  • (2013) Loc-Dog & Tony VA / Все знают всё (Rap, Hip-Hop) [FLAC (Tracks+.Cue ...
  • (1989) Fausto Papetti / Magic Sax [Vol. 2] (Instrumental) [FLAC (tracks+.cu ...
  • (2012) Рем Дигга / Черника (Rap) [FLAC (tracks+.cue), lossless]
  • (2012) Три Кита (Зануда, Gipsy King, Тато) / Три Кита (Rap) [FLAC (tracks+. ...
  • (2005, сборник) VA / Магия Гитары (Instrumental) [FLAC (tracks+.cue), lossl ...
  • (2011) ГРОТ / О Пути По Встречной (Rap) [FLAC (tracks+.cue), lossless]
  • (2012) The Rasmus / The Rasmus (Alternative Rock/Melodic Rock) [FLAC (track ...
  • (1993) Mireille Mathieu / Chante Piaf (Pop) [FLAC (tracks+.cue), lossless]
  • (2012) Guf / Сам И ... (Rap) [FLAC (tracks+.cue), lossless]
  • (2012) Адвайта / Не спать (Rap) [FLAC (tracks+.cue), lossless]
  • (2012) Триада / Мои глаза открыты (Rap) [FLAC (tracks+.cue), lossless]
  • (2012) KREC / Молча проще (Rap) [FLAC (tracks+.cue), lossless]
  • (2012) Птаха / Старые тайны (Rap) [FLAC (tracks+.cue), lossless]
  • (2012) Rammstein / Mein Herz brennt (Industrial, Tanz-Metal) [FLAC (tracks ...
  • (2009, сборник) VA / Классика Навсегда (Classical) [FLAC (tracks+.cue), los ...
  • (2011) Ассаи / ОМ (Rap) [FLAC (tracks+.cue), lossless]
  • (2012) Ария / Live In Studio (Heavy Metal) [FLAC (image+.сue), lossless]
  • (2012) Словетский / Мозайка (Rap) [FLAC (tracks+.cue), lossless]
  • Информация
    Посетители, находящиеся в группе Гости, не могут оставлять комментарии к данной публикации.