вход на сайт

Имя пользователя :
Пароль :

Восстановление пароля Регистрация
(2011) Gandharva / Lord of the Universe (New Age, Classical, Erhu) [FLAC (tracks+.cue), lossless]
Рейтинг:
(голосов: 1)



[img]{THEME}/images/logopost.png[/img]



Исполнитель: Gandharva
Альбом: Lord of the Universe
Тип альбома: Студийный
Год выпуска: 2011
Жанр: New Age, Classical, Erhu
Формат: FLAC (tracks+.cue)
Битрейт: lossless
Продолжительность: 00:59:54


01. Gandharva-Sudhu Swapaner [02:59]
02. Gandharva-Khama Karo [05:07]
03. Gandharva-Bahir Jibane [03:35]
04. Gandharva-Lord of the Universe [07:27]
05. Gandharva-Fairy - Mama Brabhu [07:14]
06. Gandharva-Bedhanai [02:28]
07. Gandharva-Namo Narayan [01:24]
08. Gandharva-Tomar Ashish [08:10]
09. Gandharva-Subarata Songs [03:14]
10. Gandharva-Heavenly [03:50]
11. Gandharva-Ave Maria [05:32]
12. Gandharva-We Praise Thee [08:54]
Отчет EAC ▼TextExact Audio Copy V1.0 beta 1 from 15. November 2010

EAC extraction logfile from 30. July 2011, 15:15

Gandharva / Lord of the Universe

Used drive : PIONEER DVD-RW DVR-218L Adapter: 0 ID: 0

Read mode : Secure
Utilize accurate stream : Yes
Defeat audio cache : Yes
Make use of C2 pointers : No

Read offset correction : 6
Overread into Lead-In and Lead-Out : No
Fill up missing offset samples with silence : Yes
Delete leading and trailing silent blocks : No
Null samples used in CRC calculations : Yes
Used interface : Installed external ASPI interface
Gap handling : Appended to previous track

Used output format : User Defined Encoder
Selected bitrate : 896 kBit/s
Quality : High
Add ID3 tag : No
Command line compressor : C:Program FilesExact Audio CopyFLACFLAC.EXE
Additional command line options : -8 -V -T "ARTIST=%a" -T "TITLE=%t" -T "ALBUM=%g" -T "DATE=%y" -T "TRACKNUMBER=%n" -T "GENRE=%m" -T "COMMENT=ripped by boccador" %s

TOC of the extracted CD

Track | Start | Length | Start sector | End sector
---------------------------------------------------------
1 | 0:00.00 | 2:59.28 | 0 | 13452
2 | 2:59.28 | 5:07.34 | 13453 | 36511
3 | 8:06.62 | 3:34.48 | 36512 | 52609
4 | 11:41.35 | 7:26.48 | 52610 | 86107
5 | 19:08.08 | 7:14.00 | 86108 | 118657
6 | 26:22.08 | 2:28.00 | 118658 | 129757
7 | 28:50.08 | 1:24.00 | 129758 | 136057
8 | 30:14.08 | 8:10.00 | 136058 | 172807
9 | 38:24.08 | 3:14.00 | 172808 | 187357
10 | 41:38.08 | 3:50.00 | 187358 | 204607
11 | 45:28.08 | 5:32.00 | 204608
1a474ab86976861f517c2b9df6e8e24379c237c2(2011) Gandharva / Lord of the Universe (New Age, Classical, Erhu) [FLAC (tracks+.cue), lossless] (2011) Gandharva / Lord of the Universe (New Age, Classical, Erhu) [FLAC (tracks+.cue), lossless] " />

Аплоадер: Админ, дата: 26-08-2011, 16:51, торрент скачан: 359 раз

Понравилась раздача? Посмотрите эти:
  • (2010) Вячеслав Бутусов и Ю-Питер / Цветы и Тернии (Rock) [FLAC (tracks + . ...
  • (2010) Zaz / Zaz (Nu jazz, Chanson, Soul) [FLAC (tracks+.cue), lossless]
  • (2011) Adele / 21 (Jazz, Lounge, Easy Listening) [FLAC (tracks + .cue), los ...
  • (2011) Disturbed / The Lost Children (Alternative Metal) [FLAC (tracks+.cue ...
  • (2011) Daughtry / Break the Spell (Deluxe Edition) (Alt. Rock / Modern Rock ...
  • (2002) PPK (ППК) / ReLoad. Russian Trance (Trance) [FLAC (tracks+cue), loss ...
  • (2011) Виктория - победительница / Victorious (OST) [FLAC (tracks+.cue), lo ...
  • (2011) B.B. King / Icon (Blues) [FLAC (tracks+.cue), lossless]
  • (2012) Tomandandy / Resident Evil: Retribution (Score, Soundtrack)[FLAC (tr ...
  • (2011) Ляпис Трубецкой / Веселые картинки (Rock) [FLAC (tracks+.cue), lossl ...
  • (1989) Galway - Scimone - I Solisti Veneti / Vivaldi - 6 Concertos (Classic ...
  • (2011) Scorpions / Comeblack (Hard Rock) [FLAC (tracks+.cue)lossless]
  • (2011) Revocation / Chaos of Forms (Death Metal/Thrash) [FLAC (tracks+.cue) ...
  • (2011) Дельфин / Существо (Alternative|Experimental) [FLAC (tracks+.cue), l ...
  • (2011) Ленинград / Хна (Rock) [FLAC (tracks+.cue), lossless]
  • (2012) Les Friction / Les Friction (Alt. Rock/Neo-Classical/Orchestral) [FL ...
  • (2011) SeeS / The enD (Progressive/Math Metal) [FLAC (tracks+.cue), lossles ...
  • (2011) Downhere / On The Altar Of Love (Alternative Rock/Christian Rock) [F ...
  • (2012) Our Lady Peace / Curve (Alternative/Rock) [FLAC (tracks+.cue), lossl ...
  • (2011) The Browning / Burn This World (Deathcore/Electronic) [FLAC (tracks+ ...
  • (2012) KoRn feat. Skrillex / Chaos Lives In Everything (UK Promo) (Nu-metal ...
  • (2012) Nine Lashes / World We View (Alt.Rock/Alt.Metal/Christian) [FLAC (tr ...
  • (2011) Phinehas / Thegodmachine (Metalcore) [FLAC (tracks+.cue), lossless]
  • (2011) Skindred / Union Black (Alternative Metal, Ragga-Metal) [FLAC (track ...
  • (2012) For Today / Immortal (Metalcore, Hardcore, Christian) [FLAC (tracks+ ...
  • Информация
    Посетители, находящиеся в группе Гости, не могут оставлять комментарии к данной публикации.