вход на сайт

Имя пользователя :
Пароль :

Восстановление пароля Регистрация
(2011) Electric Universe / Higher Modes (Psytrance, Full On) [FLAC (tracks+.cue), lossless]
Рейтинг:
(голосов: 1)



[img]{THEME}/images/logopost.png[/img]




Исполнитель: Electric Universe
Альбом: Higher Modes
Страна: Germany
Тип альбома: Студийный
Год выпуска: 2011
Жанр: Psytrance, Full On
Формат:FLAC (tracks+.cue)
Битрейт: lossless
Продолжительность: 01:16:00


Tреклист:
▼01. Electric Universe - Embracing the sun [5:58]
02. Electric Universe - The Point [7:20]
03. Electric Universe - Daft Robot [4:37]
04. Electric Universe - Rockers and Rollers [7:15]
05. Electric Universe - Lazerbass [7:12]
06. Electric Universe - Higher Modes [6:59]
07. Electric Universe - The Funkadelic Drummer [5:45]
08. Electric Universe - Gratified [8:00]
09. Electric Universe - Bodhysattva [8:21]
10. Electric Universe - Up [4:47]
11. Electric Universe - All is nothing [6:02]
12. Electric Universe - The Web [3:40]
Отчет EAC:
▼Exact Audio Copy V0.99 prebeta 5 from 4. May 2009

EAC extraction logfile from 1. May 2011, 20:54

Electric Universe / Higher Modes

Used drive: Optiarc DVD RW AD-7170A Adapter: 1ID: 0

Read mode : Secure
Utilize accurate stream : Yes
Defeat audio cache: Yes
Make use of C2 pointers : No

Read offset correction: 48
Overread into Lead-In and Lead-Out: No
Fill up missing offset samples with silence : Yes
Delete leading and trailing silent blocks : No
Null samples used in CRC calculations : Yes
Used interface: Native Win32 interface for Win NT & 2000
Gap handling: Appended to previous track

Used output format: User Defined Encoder
Selected bitrate: 1024 kBit/s
Quality : High
Add ID3 tag : No
Command line compressor : C:Program FilesExact Audio CopyFlacflac.exe
Additional command line options : -8 -V -T "ARTIST=%a" -T "TITLE=%t" -T "ALBUM=%g" -T "DATE=%y" -T "TRACKNUMBER=%n" -T "GENRE=%m" -T "COMMENT=EAC FLAC -8" %s

TOC of the extracted CD

Track | Start|Length| Start sector | End sector
---------------------------------------------------------
1|0:00.00 |5:56.11 | 0|26710
2|5:56.11 |7:20.32 | 26711|59742
3| 13:16.43 |4:37.59 | 59743|80576
4| 17:54.27 |7:15.08 | 80577&
b82ffb34ec4d15bc0cea376a339f347c3d79c216(2011) Electric Universe / Higher Modes (Psytrance, Full On) [FLAC (tracks+.cue), lossless] (2011) Electric Universe / Higher Modes (Psytrance, Full On) [FLAC (tracks+.cue), lossless] " />

Аплоадер: Админ, дата: 7-08-2011, 16:31, торрент скачан: 359 раз

Понравилась раздача? Посмотрите эти:
Информация
Посетители, находящиеся в группе Гости, не могут оставлять комментарии к данной публикации.