вход на сайт

Имя пользователя :
Пароль :

Восстановление пароля Регистрация
(2012) Rammstein / Mein Herz brennt (Industrial, Tanz-Metal) [FLAC (tracks+.cue), lossless]
Рейтинг:
(голосов: 1)



[img]{THEME}/images/logopost.png[/img]






Исполнитель: Rammstein
Страна: Germany
Альбом: Mein Herz brennt
Тип альбома: Single
Год выпуска: 2012
Жанр: Industrial
Страна (Издатель, Каталожный номер): Germany (Universal, 0602537195619)
Аудиокодек: FLAC (*.flac)
Тип рипа: tracks+.cue
Битрейт: lossless
Продолжительность: 00:22:10

Tреклист:
1. Mein Herz Brennt (Piano Version) [04:32]
2. Gib Mir Deine Augen [03:45]
3. Mein Herz Brennt (Video Edit) [04:19]
4. Mein Herz Brennt (Boys Noize Rmx) [05:02]
5. Mein Herz Brennt (Piano Instrumental) [04:30]


Лог создания рипа ▼TextExact Audio Copy V1.0 beta 3 from 29. August 2011

Отчёт EAC об извлечении, выполненном 7. декабря 2012, 2:03

Rammstein / Mein Herz brennt

Дисковод: HL-DT-STBD-RE BH10LS30 Adapter: 2 ID: 0

Режим чтения : Достоверность
Использование точного потока : Да
Отключение кэша аудио : Да
Использование указателей C2 : Нет

Коррекция смещения при чтении : 667
Способность читать области Lead-in и Lead-out : Нет
Заполнение пропущенных сэмплов тишиной : Да
Удаление блоков с тишиной в начале и конце : Нет
При вычислениях CRC использовались нулевые сэмплы : Да
Интерфейс : Встроенный Win32-интерфейс для Win NT/2000
Обработка зазоров : Добавлено к предыдущему треку

Выходной формат : Пользовательский кодировщик
Выбранный битрейт : 128 kBit/s
Качество : Высокий
Добавление ID3-тега : Нет
Утилита сжатия : C:Program Files (x86)Exact Audio CopyFlacflac.exe
Дополнительные параметры : -V -8 -T "Genre=%genre%" -T "Artist=%artist%" -T "Title=%title%" -T "Album=%albumtitle%" -T "Date=%year%" -T "Tracknumber=%tracknr%" -T "Comment=%comment%" %source%

TOC извлечённого CD

Трек | Старт | Длительность | Начальный сектор | Конечный сектор
---------------------------------------------------------------------
1 | 0:00.00 | 4:32.07 | 0 | 20406
2 | 4:32.07 | 3:45.74 | 20407 | 37355
3 | 8:18.06 | 4:19.09 | 37356 | 56789
4 | 12:37.15 | 5:02.65 | 56790 | 79504
5 | 17:40.05 | 4:30.52 | 79505 | 99806

Трек 1

Имя файла G:RammsteinAudioSingles2012 - Mein Herz brennt�1. Mein Herz Brennt (Piano Version).wav

Длина предзазора 0:00:02.00

Пиковый уровень 97.5 %
Скорость извлечения 1.2 X
Качество трека 100.0 %
CRC теста D38FAE14
CRC копии D38FAE14
Копирование... OK

Трек 2

&nb
67551e20bad40e114621e637ba78f2ae3c3a9acf(2012) Rammstein / Mein Herz brennt (Industrial, Tanz-Metal) [FLAC (tracks+.cue), lossless] (2012) Rammstein / Mein Herz brennt (Industrial, Tanz-Metal) [FLAC (tracks+.cue), lossless] " />

Аплоадер: Админ, дата: 7-12-2012, 20:21, торрент скачан: 359 раз

Понравилась раздача? Посмотрите эти:
  • (2012) Sting / Fifteen Healing Bites (Pop Rock)(Chinese Dragon) [FLAC (trac ...
  • (2013) Смоки Мо / Младший (Rap, Hip-Hop) [FLAC (Tracks+.Cue), Lossless]
  • (2013) Маклай и Ганза / Статус-Кво (Rap, Hip-Hop) [FLAC (Tracks+.Cue), Loss ...
  • (2013) Lone / Спутник (Rap, Hip-Hop) [FLAC (Tracks+.Cue), Lossless]
  • (2013) Стриж / Игристое (Rap, Hip-Hop) [FLAC (Tracks+.Cue), Lossless]
  • (2013) Баста / Баста 4 (Rap, Hip-Hop) [FLAC (Tracks+.Cue), Lossless]
  • (2013) Loc-Dog & Tony VA / Все знают всё (Rap, Hip-Hop) [FLAC (Tracks+.Cue ...
  • (1989) Fausto Papetti / Magic Sax [Vol. 2] (Instrumental) [FLAC (tracks+.cu ...
  • Rammstein / Videos 1995-2012 [2012, Industrial Metal , BD Remux]
  • (2012) Рем Дигга / Черника (Rap) [FLAC (tracks+.cue), lossless]
  • (2012) Три Кита (Зануда, Gipsy King, Тато) / Три Кита (Rap) [FLAC (tracks+. ...
  • Rammstein / Videos 1995-2012 (Disс 2) [2012, Industrial Metal, Blu-ray]
  • (2011) Rammstein / Made In Germany 1995-2011 (2CD) (Industrial Metal/Tanz-M ...
  • (2012) Guf / Сам И ... (Rap) [FLAC (tracks+.cue), lossless]
  • (2012) Триада / Мои глаза открыты (Rap) [FLAC (tracks+.cue), lossless]
  • (2012) KREC / Молча проще (Rap) [FLAC (tracks+.cue), lossless]
  • Rammstein / Mein Herz Brennt (Piano Version) [2012, Industrial, WEBRip]
  • (2012) RammsteiN / Mein Herz Brennt (Deluxe Edition) (Industrial Metal) [MP ...
  • Rammstein / Mein Herz Brennt [2012,Industrial, WEBRip (1080p)]
  • (2011) Rammstein / Mein Land (Single) (Industrial | Tanz-Metal) [MP3, 320/C ...
  • (2011) Rammstein / Mein Land (Neue Deutsche Harte, Industrial, Tanz-Metal) ...
  • (2011) Ассаи / ОМ (Rap) [FLAC (tracks+.cue), lossless]
  • (2012) Ария / Live In Studio (Heavy Metal) [FLAC (image+.сue), lossless]
  • (2012) Словетский / Мозайка (Rap) [FLAC (tracks+.cue), lossless]
  • (2012) Rammstein / Live Birmingham (bootleg,live) (2CD) ( Industrial Tanz-m ...
  • Информация
    Посетители, находящиеся в группе Гости, не могут оставлять комментарии к данной публикации.