вход на сайт

Имя пользователя :
Пароль :

Восстановление пароля Регистрация
(Дискография, 1987-1999) Obliveon (Technical Thrash Metal) [FLAC (image+.cue), lossless]
Рейтинг:
(голосов: 1)



[img]{THEME}/images/logopost.png[/img]



Дискография
Исполнитель: Obliveon
Страна: Канада
Жанр:Technical Thrash Metal
Формат: FLAC (image+.cue)
Битрейт: lossless
Log-файлы: Присутствуют
Продолжительность: 03:03:10

Описание: К сожалению отсутствует.

Состав группы:
Bruno Bernier - vocals
Stephane Picard - bass
Pierre Remillard - guitars
Martin Gagne - guitars
Alain Demers - drums


Last.fm | Myspace

Студийные:

1990 - From This Day Forward (1990, Active, CD-ATV-14) (FLAC/image+.cue) ▼


Продолжительность: 00:39:29

Tреклист:
01. From This Day Forward (4:59)
02. Fiction Of Veracity (8:37)
03. Droпdomized (6:43)
04. Imminent Regenerator (5:03)
05. It Should Have Stayed Unreal (4:05)
06. Access To The Acropolis (4:15)
07. Chronocraze (5:47)

Отчет "EAC" ▼TextExact Audio Copy V0.99 prebeta 4 from 23. January 2008

EAC extraction logfile from 4. March 2009, 20:49

Obliveon / From This Day Forward

Used drive : PLEXTOR CD-R PREMIUM2 Adapter: 0 ID: 1

Read mode : Secure
Utilize accurate stream : Yes
Defeat audio cache : Yes
Make use of C2 pointers : No

Read offset correction : 30
Overread into Lead-In and Lead-Out : No
Fill up missing offset samples with silence : Yes
Delete leading and trailing silent blocks : No
Null samples used in CRC calculations : Yes
Used interface : Installed external ASPI interface

Used output format : Internal WAV Routines
Sample format : 44.100 Hz; 16 Bit; Stereo

TOC of the extracted CD

Track | Start | Length | Start sector | End sector
---------------------------------------------------------
1 | 0:00.33 | 4:58.70 | 33 | 22452
2 | 4:59.28 | 8:37.10 | 22453 | 61237
3 | 13:36.38 | 6:42.62 | 61238 | 91449
4 | 20:19.25 | 5:02.58 | 91450 | 114157
5 | 25:22.08 | 4:05.05 | 114158 | 132537
6 | 29:27.13 | 4:14.62 | 132538 | 151649
7 | 33:42.00 | 5:47.28 | 151650 | 177702

Range status and errors

Selected range

Filename E:RIPPATIObliveon - From This Day Forward.wav

Peak level 92.3 %
Range quality 100.0 %
Copy CRC 3087B59B
Copy OK

No errors occurred

AccurateRip summary

Track 1 not present in database
Track 2 not present in database
Track 3 not present in database
Track 4 not present in database
Track 5 not present in database
Track 6 not present in database
Track 7 not present in database

None of the tracks are present in the AccurateRip database

End of status report



1993 - Nemesis (1993, Self-Released) (FLAC/image+.cue) ▼


Продолжительность: 00:42:45

Tреклист:
01. Nemesis (5:42)
02. The Thinkers Lair (4:33)
03. Obscure Mindways (4:58)
04. Dynamo (5:19)
05. Frosted Avowals (5:32)
06. Factory Of Delusions (5:51)
07. Estranging Abduction (4
65e2e0565736879c85916bcb0ca8abc3d2fdcc69(Дискография, 1987-1999) Obliveon (Technical Thrash Metal) [FLAC (image+.cue), lossless] (Дискография, 1987-1999) Obliveon (Technical Thrash Metal) [FLAC (image+.cue), lossless] " />

Аплоадер: Админ, дата: 3-06-2012, 19:04, торрент скачан: 359 раз

Понравилась раздача? Посмотрите эти:
  • (2013) Мумий Тролль / SOS Матросу - 2013, (Rock) [FLAC (image+.cue), lossle ...
  • (2011) Scar Symmetry / The Unseen Empire (Melodic Death Metal) [FLAC (image ...
  • (2011) Sepultura / Kairos (Thrash Metal) [Flac(image+.cue)lossless]
  • (2012) Linkin Park / Burn It Down (Alternative Rock) (Single) [FLAC (image+ ...
  • (2012) Kreator / Phantom Antichrist (Thrash Metal) [FLAC (image+.cue), loss ...
  • (2011 15CD Box Set Digitally Remaster) Rush - Sectors (Rock, Progressive R ...
  • (2012) Madonna / Superstar (Pop) [FLAC (image+.cue), lossless]
  • (2009) Miley Cyrus / The Time of Our Lives (Pop) [FLAC (tracks+.cue), lossl ...
  • (2011) VA / Танцевальный Рай 27 (Pop) [FLAC (image+.cue), lossless]
  • (2011) Linkin Park / Iridescent (Alternative Rock) [FLAC(image+.cue), lossl ...
  • (2011) JORN / Live In Black (Heavy/Progressive Metal ) [FLAC (image+.cue), ...
  • (2011) Rammstein / Mein Land (Neue Deutsche Harte, Industrial, Tanz-Metal) ...
  • (2011) Adriano Celentano / Facciamo Finta Che Sia Vero (POP) [FLAC (image+. ...
  • (2011) Сурганова & Оркестр / Увидимся скоро (Rock) [FLAC (image+.cue), loss ...
  • (2011) Metallica / Beyond Magnetic (Thrash Metal) [FLAC (image+.cue), lossl ...
  • (2012) Adrenaline Mob / Omerta (Heavy Metal/Progressive/Nu-Metal) [FLAC (im ...
  • (2012) Crippled Black Phoenix / (Mankind) The Crafty Ape (Alternative/Indie ...
  • (2010) Татьяна Буланова / Романсы (Pop) [FLAC (image+.cue), lossless]
  • (2011) Lou Reed & Metallica / Lulu (Heavy Metal, Hard Rock) [FLAC (image+.c ...
  • (2010) Punish My Heaven / First Punishment (Melodic Death Metal, Metalcore) ...
  • Информация
    Посетители, находящиеся в группе Гости, не могут оставлять комментарии к данной публикации.