вход на сайт

Имя пользователя :
Пароль :

Восстановление пароля Регистрация
(2012) Moonspell / Alpha Noir - Omega White (Limited Edition) (Gothic, Extreme Metal) [APE (image+.сue), lossless]
Рейтинг:
(голосов: 1)



[img]{THEME}/images/logopost.png[/img]





Альбом: Alpha Noir - Omega White (Limited Edition)
Тип альбома: Студийный
Год выпуска: 2012
Страна: Portugal (Brandoa, Lisbon)
Жанр: Gothic, Extreme Metal
Формат: APE (image+.сue)
Битрейт: lossless
Log-файл: Присутствует
Продолжительность: 01:18:49



Disc 1 (Alpha Noir):
01. Axis Mundi (04:56)
02. Licknthrope (03:49)
03. Versus (04:39)
04. Alpha Noir (04:30)
05. En Nome Do Medo (04:27)
06. Opera Carne (03:52)
07. Love Is Blashemy (04:31)
08. Grandstand (04:53)
09. Sine Missione (04:57)
Disc 2 (Omega White):
01. Whiteomega (04:21)
02. White Skies (03:34)
03. Fireseason (04:29)
04. New Tears Eve (04:45)
05. Herodisiac (04:46)
06. Incantatrix (04:40)
07. Sacrificial (04:11)
08. A Greater Darkness (07:24)
Отчет "EAC" (CD1) ▼Text
Exact Audio Copy V0.99 prebeta 5 from 4. May 2009

EAC extraction logfile from 26. April 2012, 18:19

MOONSPELL / Alpha Noir

Used drive : HL-DT-STDVD-RAM GH15L Adapter: 0 ID: 1

Read mode : Secure
Utilize accurate stream : Yes
Defeat audio cache : Yes
Make use of C2 pointers : No

Read offset correction : 667
Overread into Lead-In and Lead-Out : No
Fill up missing offset samples with silence : Yes
Delete leading and trailing silent blocks : No
Null samples used in CRC calculations : Yes
Used interface : Native Win32 interface for Win NT & 2000

Used output format : Monkeys Audio Lossless Encoder
Selected bitrate : High Lossless Compression
Quality : High
Add ID3 tag : No
Command line compressor : C:Program FilesExact Audio CopyMAC.EXE


TOC of the extracted CD

Track | Start | Length | Start sector | End sector
---------------------------------------------------------
1 | 0:00.00 | 4:56.39 | 0 | 22238
2 | 4:56.39 | 3:49.03 | 22239 | 39416
3 | 8:45.42 | 4:39.22 | 39417 | 60363
4 | 13:24.64 | 4:30.09 | 60364 | 80622
5 | 17:54.73 | 4:27.36 | 80623 | 100683
6 | 22:22.34 | 3:52.67 | 100684 | 118150
7 | 26:15.26 | 4:31.22 | 118151 | 138497
8 | 30:46.48 | 4:53.64 | 138498 | 160536
9 | 35:40.37 | 4:57.11 | 160537 | 182822


Range status and errors

Selected range

Filename C:Documents and SettingsAdministratorPulpitMOONSPELL [2012] [CD1] Alpha NoirMOONSPELL - Alpha Noir.wav

Peak level 98.8 %
Range quality 100.0 %
Copy CRC E8A0CFAF
046fe64f7af6da22f1d637014f97fd9cb1138b7b(2012) Moonspell / Alpha Noir - Omega White (Limited Edition) (Gothic, Extreme Metal) [APE (image+.сue), lossless] (2012) Moonspell / Alpha Noir - Omega White (Limited Edition) (Gothic, Extreme Metal) [APE (image+.сue), lossless] " />

Аплоадер: Админ, дата: 3-05-2012, 00:27, торрент скачан: 359 раз

Понравилась раздача? Посмотрите эти:
  • (1989) Kaoma / Lambada (lambada / latin / ethnic) [FLAC (image+.cue), lossl ...
  • (2010) Ассаи / Лифт (Rap) [FLAC(image+.cue), lossless]
  • (2010) Tarja Turunen / What Lies Beneath (Limited Edition) (Symphonic Metal ...
  • (2010) YELLO / Yello By Yello. The Anthology (Limited Deluxe Edition 3CD+D ...
  • (2011) Mylene Farmer/ Bleu Noir (CDS + CDM) (Pop) [APE (image+.cue) lossles ...
  • (2011) Scar Symmetry / The Unseen Empire (Melodic Death Metal) [FLAC (image ...
  • (1984) Van Halen / 1984 (Japanese 1984 SHM-CD Edition) (Hard & Heavy) [APE ...
  • (2012) Axel Rudi Pell / Circle Of The Oath (Limited Edition Digipack) (Melo ...
  • (2012) Kreator / Phantom Antichrist (Thrash Metal) [FLAC (image+.cue), loss ...
  • (2012) Pantera / Vulgar Display Of Power (20th Anniversary Edition 2012) (A ...
  • (2011) JORN / Live In Black (Heavy/Progressive Metal ) [FLAC (image+.cue), ...
  • (2011) Rammstein / Mein Land (Neue Deutsche Harte, Industrial, Tanz-Metal) ...
  • (2011) Metallica / Beyond Magnetic (Thrash Metal) [FLAC (image+.cue), lossl ...
  • (2012) RAGE / 21 (Limited Edition, 2CD) (Heavy Metal/Thrash Metal) [FLAC ( ...
  • (2012) Adrenaline Mob / Omerta (Heavy Metal/Progressive/Nu-Metal) [FLAC (im ...
  • (2012) Fox / 2012 (Melodic Hard Rock) [FLAC (image +.cue), lossless]
  • (2012) Soulfly / Enslaved [Deluxe Edition] (Groove Metal/Thrash Metal) [FLA ...
  • (2012) Game Over / For Humanity (Thrash Metal) [FLAC (image+.cue), lossless ...
  • (2011) Lou Reed & Metallica / Lulu (Heavy Metal, Hard Rock) [FLAC (image+.c ...
  • (2010) Punish My Heaven / First Punishment (Melodic Death Metal, Metalcore) ...
  • Информация
    Посетители, находящиеся в группе Гости, не могут оставлять комментарии к данной публикации.