вход на сайт

Имя пользователя :
Пароль :

Восстановление пароля Регистрация
(Дискография, 1986 - 1999) Crimson Glory (Progressive Heavy Metal) [FLAC (image+.cue), Lossless]
Рейтинг:
(голосов: 1)



[img]{THEME}/images/logopost.png[/img]



Дискография
Исполнитель: Crimson Glory
Страна:USA
Жанр: Progressive Heavy Metal
Формат: FLAC (image+.cue)
Битрейт: lossless
Продолжительность: 03:28:30
Рок-энциклопедия

Студийные альбомы: ▼
1986 - Crimson Glory ▼


Продолжительность: 00:39:13

Треклист:

01. Valhalla (3:53)
02. Dragon Lady (4:28)
03. Heart Of Steel (6:16)
04. Azrael (5:42)
05. Mayday (3:02)
06. Queen Of The Masquerade (5:31)
07. Angels Of War (5:31)
08. Lost Reflection (4:50)
Лог EAC ▼Text
Exact Audio Copy V0.99 prebeta 3 from 28. July 2007

Отчёт EAC об извлечении, выполненном 20. июля 2010, 14:46

Crimson Glory / Crimson Glory (MP32-5109)

Дисковод: TSSTcorpCDDVDW SH-S202H Adapter: 0 ID: 0

Режим чтения : Достоверность
Использование точного потока : Да
Отключение кэша аудио : Да
Использование указателей C2 : Нет

Коррекция смещения при чтении : 6
Способность читать области Lead-in и Lead-out : Нет
Заполнение пропущенных сэмплов тишиной : Да
Удаление блоков с тишиной в начале и конце : Нет
При вычислениях CRC использовались нулевые сэмплы : Да
Интерфейс : Установленный внешний ASPI-интерфейс

Выходной формат : Внутренние WAV-операции
Формат сэмплов : 44.100 Гц; 16 бит; стерео


TOC извлечённого CD

Трек | Старт | Длительность | Начальный сектор | Конечный сектор
---------------------------------------------------------------------
1 | 0:00.37 | 3:52.45 | 37 | 17481
2 | 3:53.07 | 4:27.53 | 17482 | 37559
3 | 8:20.60 | 6:16.07 | 37560 | 65766
4 | 14:36.67 | 5:42.10 | 65767 | 91426
5 | 20:19.02 | 3:02.28 | 91427 | 105104
6 | 23:21.30 | 5:31.02 | 105105 | 129931
7 | 28:52.32 | 5:30.63 | 129932 | 154744
8 | 34:23.20 | 4:50.27 | 154745 | 176521


Характеристики диапазона извлечения и сообщения об ошибках

Выбранный диапазон

Имя файла C:DownloadsEACCrimson Glory - Crimson Glory (MP32-5109).wav

Пиковый уровень 65.0 %
Качество диапазона 100.0 %
CRC теста 8AA8F94B
CRC копии 8AA8F94B
Копирование... OK

Ошибок не произошло


AccurateRip: сводка

Трек 1 нет в базе данных
Трек 2 нет в базе данных
Трек 3 нет в базе данных
Трек 4&n
1e808c68cc4f42442b5e00468e710d22a681c4fa(Дискография, 1986 - 1999) Crimson Glory (Progressive Heavy Metal) [FLAC (image+.cue), Lossless] (Дискография, 1986 - 1999) Crimson Glory (Progressive Heavy Metal) [FLAC (image+.cue), Lossless] " />

Аплоадер: Админ, дата: 27-03-2012, 19:56, торрент скачан: 359 раз

Понравилась раздача? Посмотрите эти:
  • (2012) Григорий Лепс / Полный вперёд (Шансон) [FLAC (image+.cue), Lossless ...
  • (Дискография, 1986 - 2007) KING DIAMOND (Heavy Metal) [APE,FLAC,WV (image + ...
  • (2009) НОЧНЫЕ СНАЙПЕРЫ — Южный полюс (русский рок, сингл) [FLAC (lossless), ...
  • (1994) Joy / Grand Collection (EuroDisco) [FLAC (image+.cue) lossless]
  • (1999) Paul Mauriat / Diamond Collections (Instrumental,Easy Listening) [FL ...
  • (2011) Within Temptation / The Unforgiving (Symphonic Gothic Metal) [FLAC ( ...
  • (Дискография) The Doors (Classic Rock) [FLAC(tracks,image+.cue),APE(image+. ...
  • (2011) АлисА / 20.12 (Русский Рок) [WavPack (image+.cue), lossless]
  • (2011) Blues Cousins / KGB Blues (Blues Rock) [FLAC (image+.cue), lossless] ...
  • (2011) АукцЫон / Юла (Rock) [APE (image+.cue), lossless]
  • (Дискография, 2006-2010) Черный кузнец (Heavy Power Metal) [WavPack (image ...
  • (Дискография, 1983-1997) Stevie Ray Vaughan (Blues) [APE (image+.cue), loss ...
  • (1989) Motley Crue / Dr. Feelgood (Hard Rock, Heavy metal, Glam metal) [APE ...
  • (2007) ЛАСКОВЫЙ МАЙ - Лучшие Песни. Твоя Коллекция (2CD) (Pop) [FLAC (image ...
  • (2009) Земфира / Z-Sides (Rock) [FLAC(image+.cue), lossless ]
  • (2006) Би-2 / Лучшие песни (Rock) [FLAC (image+.cue), lossless]
  • (1986) Dark Angel / Darkness Descends (Thrash Metal) [FLAC (image+.cue), lo ...
  • (Дискография, 2005-2008) Ёлка (R&B, Reggae, Pop) [APE (image+.cue); FLAC (i ...
  • (2011) Iron Savior / The Landing (Limited Edition) (Power/Heavy Metal) [FL ...
  • (1995) Юрий Шатунов / Ты помнишь... (Pop) [FLAC(image+.cue), lossless]
  • (1995) Steve Morse Band / Structural Damage (Instrumental Rock/Blues Rock/J ...
  • (2012) Paradise Lost / Tragic Idol (Limited Edition) (Gothic Rock, Metal) [ ...
  • (2000) Парк Горького (Gorky Park) / The Best (Glam Metal/Hard Rock) [FLAC ...
  • (2004) Ex-Сектор Газа / Огненный рай (Punk-Rock) [FLAC (image+.cue), lossle ...
  • (2008) Студия 80 / Придуманный Мир (Pop) [FLAC (image+.cue), lossless]
  • Информация
    Посетители, находящиеся в группе Гости, не могут оставлять комментарии к данной публикации.