вход на сайт

Имя пользователя :
Пароль :

Восстановление пароля Регистрация
(2012) Axel Rudi Pell / Circle Of The Oath (Limited Edition Digipack) (Melodic Heavy Metal) [FLAC (image+.сue), lossless]
Рейтинг:
(голосов: 1)



[img]{THEME}/images/logopost.png[/img]



Исполнитель: Axel Rudi Pell
Альбом: Circle Of The Oath (Limited Edition Digipack)
Страна: Germany
Тип альбома: Студийный
Год выпуска: 2012
Жанр: Melodic Heavy Metal
Формат: FLAC (image+.сue)
Битрейт: lossless
Продолжительность: 1:09:40

Tреклист:
01. The Guillotine Suite (Intro) (1:52)
02. Ghost In The Black (4:37)
03. Run With The Wind (4:43)
04. Before I Die (4:30)
05. Circle Of The Oath (9:21)
06. Fortunes Of War (5:20)
07. Bridges To Nowhere (7:11)
08. Lived Our Lives Before (6:31)
09. Hold On To Your Dreams (5:48)
10. World Of Confusion (The Masquerade Ball Pt. II) (9:30)
11. The Temple Of The King (Live) (Bonus Track) (10:16)

Лог создания рипа ▼TextExact Audio Copy V0.99 prebeta 5 from 4. May 2009

EAC extraction logfile from 23. March 2012, 0:09

Axel Rudi Pell / Circle Of The Oath

Used drive : ATAPI iHAS624 B Adapter: 2 ID: 0

Read mode : Secure
Utilize accurate stream : Yes
Defeat audio cache : Yes
Make use of C2 pointers : No

Read offset correction : 6
Overread into Lead-In and Lead-Out : No
Fill up missing offset samples with silence : Yes
Delete leading and trailing silent blocks : No
Null samples used in CRC calculations : Yes
Used interface : Installed external ASPI interface

Used output format : User Defined Encoder
Selected bitrate : 40 kBit/s
Quality : High
Add ID3 tag : No
Command line compressor : C:Program FilesExact Audio CopyFlacflac.exe
Additional command line options : -6 -V %s


TOC of the extracted CD

Track | Start | Length | Start sector | End sector
---------------------------------------------------------
1 | 0:00.00 | 1:51.51 | 0 | 8375
2 | 1:51.51 | 4:37.13 | 8376 | 29163
3 | 6:28.64 | 4:43.09 | 29164 | 50397
4 | 11:11.73 | 4:30.13 | 50398 | 70660
5 | 15:42.11 | 9:20.60 | 70661 | 112720
6 | 25:02.71 | 5:19.40 | 112721 | 136685
7 | 30:22.36 | 7:11.34 | 136686 | 169044
8 | 37:33.70 | 6:31.37 | 169045 | 198406
9 | 44:05.32 | 5:48.31 | 198407 | 224537
10 | 49:53.63 | 9:29.48 | 224538 | 267260
11 | 59:23.36 | 10:15.61 | 267261 | 313446


Range status and errors

Selected range

Filename D:DownloadAxel Rudi Pell - Circle Of
e30fd0ce345330afd38534e61e7d21618092d601(2012) Axel Rudi Pell / Circle Of The Oath (Limited Edition Digipack) (Melodic Heavy Metal) [FLAC (image+.сue), lossless] (2012) Axel Rudi Pell / Circle Of The Oath (Limited Edition Digipack) (Melodic Heavy Metal) [FLAC (image+.сue), lossless] " />

Аплоадер: Админ, дата: 27-03-2012, 17:26, торрент скачан: 359 раз

Понравилась раздача? Посмотрите эти:
  • (2002) Urker / Уркер / Made In Kazakhstan (Pop, Ethno) [FLAC (image+.cue), ...
  • (1989) Kaoma / Lambada (lambada / latin / ethnic) [FLAC (image+.cue), lossl ...
  • (2010) Сергей Трофимов (Трофим) / Всё не важно (Шансон) [FLAC(image+.cue), ...
  • (2010) Ассаи / Лифт (Rap) [FLAC(image+.cue), lossless]
  • (2010) Tarja Turunen / What Lies Beneath (Limited Edition) (Symphonic Metal ...
  • (2010) YELLO / Yello By Yello. The Anthology (Limited Deluxe Edition 3CD+D ...
  • (2011) Scar Symmetry / The Unseen Empire (Melodic Death Metal) [FLAC (image ...
  • (1984) Van Halen / 1984 (Japanese 1984 SHM-CD Edition) (Hard & Heavy) [APE ...
  • (Дискография, 1988-2011) Kingdom Come (Hard&Heavy,Glam Metal) [FLAC (image+ ...
  • (2012) Moonspell / Alpha Noir - Omega White (Limited Edition) (Gothic, Extr ...
  • (2012) Kreator / Phantom Antichrist (Thrash Metal) [FLAC (image+.cue), loss ...
  • (2012) Pantera / Vulgar Display Of Power (20th Anniversary Edition 2012) (A ...
  • Axel Rudi Pell / One Night Live [2010, Heavy metal, DVDRip]
  • (2008) Scars on Broadway / Scars on Broadway (Japan Edition) (Alt.Metal/Exp ...
  • (2011) Stargazery / Eye On The Sky (Heavy Metal) [FLAC (image+.cue), lossle ...
  • (2011) JORN / Live In Black (Heavy/Progressive Metal ) [FLAC (image+.cue), ...
  • (2011) Rammstein / Mein Land (Neue Deutsche Harte, Industrial, Tanz-Metal) ...
  • (2012) RAGE / 21 (Limited Edition, 2CD) (Heavy Metal/Thrash Metal) [FLAC ( ...
  • (2012) Adrenaline Mob / Omerta (Heavy Metal/Progressive/Nu-Metal) [FLAC (im ...
  • (2012) Fox / 2012 (Melodic Hard Rock) [FLAC (image +.cue), lossless]
  • (2012) Soulfly / Enslaved [Deluxe Edition] (Groove Metal/Thrash Metal) [FLA ...
  • (2011) The Soulless / Isolated (Melodic Death Metal/Metalcore) [FLAC (track ...
  • (2012) Game Over / For Humanity (Thrash Metal) [FLAC (image+.cue), lossless ...
  • (2011) Lou Reed & Metallica / Lulu (Heavy Metal, Hard Rock) [FLAC (image+.c ...
  • (2010) Punish My Heaven / First Punishment (Melodic Death Metal, Metalcore) ...
  • Информация
    Посетители, находящиеся в группе Гости, не могут оставлять комментарии к данной публикации.