вход на сайт

Имя пользователя :
Пароль :

Восстановление пароля Регистрация
(Дискография, 2004-2009) Sybreed (Groove Industrial Metal) [APE (image+.cue), lossless]
Рейтинг:
(голосов: 1)



[img]{THEME}/images/logopost.png[/img]





Дискография
Страна: Швейцария
Жанр: Groove Industrial Metal
Формат: APE (image+.cue)
Битрейт: lossless
Log-файл: Присутствует
Продолжительность: 03:25:53


▼Sybreed — швейцарская кибер-дэт-метал группа, основанная в 2003 году.
Группа была создана в 2003 году вокалистом Бенджамином Номинетом и гитаристом Томасом Бетрисеем. Спустя два месяца к ним присоединились барабанщик Alex и басист Burn. Вчетвером они стали активно сочинять и записывать свою музыку, благодаря чему уже в 2004 году увидело свет их первое совместное творение - альбом Slave Design. Альбом получился удачным, в течение последующих двух лет группа во всю гастролировала по США и Европе.
После этого, группа стала давать концерты в поддержку нового альбома по всей Америке. Затем продолжила выступать в Европе.
После завершения тура в поддержку первого альбома из-за разногласий группу покинул ударник Alex из-за личных и творческих причин, поэтому для записи их второго альбома, получившего название Antares и выпущенного на французском лейбле Listenable Records в 2007 году, был приглашён барабанщик Дирк Вербюрен - участник таких групп как Soilwork и Scarve. Сразу после записи альбома группа нашла нового барабанщика - Кевина Чойрала, который играет в группе и по сегодняшний день.
29 июня 2009 года официальном сайте группы появилась информация о том, что музыкальный коллектив покинул басист Burn. Как раз в это время группа собиралась в концертный тур по США, и поэтому в качестве сессионного басиста к группе присоединился Эктор Гонсалес, участник группы Flatline.
Сразу после американского тура, 31 августа на официальном сайте была размещена информация о том, что новым басистом стал Стефан Гранд. И он принял участие в третьем полноформатном альбоме группы, вышедшем 19 ноября под названием The Pulse of Awakening.
22-го и 23-го мая 2010 года группа в рамках тура побывала с совместными с группой Dagoba концертами в Санкт-Петербурге и в Москве.

Состав группы:
Бенджамин Ben Номинет - вокал
Томас Drop Бетрисей - гитара, программинг
Стефан Гранд - бас-гитара
Кевин Чойрал - ударныеStudio albums:


2004 - Slave Design



Продолжительность: 00:59:04

Tреклист:
01. Bioactive (6:25)
02. Re-Evolution (4:04)
03. Decoy (5:07)
04. Synthetic Breed (5:19)
05. Next Day Will Never Come (5:24)
06. Machine Gun Messiah (4:19)
07. Take The Red Pill (5:00)
08. Rusted (5:35)
09. Static Currents (3:44)
10. Critical Mass (6:11)
11. Re-Evolution (Syntax Airplay Edit) (3:55)
12. Decoy (Radio Slave Edit) (4:01)
Отчет"EAC" ▼TextExact Audio Copy V0.99 prebeta 4 from 23. January 2008

EAC extraction logfile from 11. December 2010, 12:26

Sybreed / Slave Design

Used drive : TSSTcorpCD/DVDW TS-H552B Adapter: 0 ID: 1

Read mode : Secure
Utilize accurate stream : Yes
Defeat audio cache : Yes
Make use of C2 pointers : No

Read offset correction : 12
Overread into Lead-In and Lead-Out : No
Fill up missing offset samples with silence : Yes
Delete leading and trailing silent blocks : No
Null samples used in CRC calculations : Yes
Used interface : Native Win32 interface for Win NT & 2000

Used output format : Internal WAV Routines
Sample format : 44.100 Hz; 16 Bit; Stereo

TOC of the extracted CD

Track | Start | Length | Start sector | End sector
---------------------------------------------------------
1 | 0:00.00 | 6:24.48 | 0 | 28847
2 | 6:24.48 | 4:03.63 | 28848 | 47135
3 | 10:28.36 | 5:07.11 | 47136 | 70171
4 | 15:35.47 | 5:19.37 | 70172 | 94133
5 | 20:55.09 | 5:24.19 | 94134 | 118452
6 | 26:19.28 | 4:18.65 | 118453 | 137867
7 | 30:38.18 | 5:00.02 | 137868 | 160369
8 | 35:38.20 | 5:34.38 | 160370 | 185457
9 | 41:12.58 | 3:44.13 | 185458 | 202270
10 | 44:56.71 | 6:11.21 | 202271 | 230116
11 | 51:08.17 | 3:54.67 | 230117 | 247733
12 | 55:03.09 | 4:00.71 | 247734 | 265804

Range status and errors

Selected range

Filename C:UsersArtEnemyDesktopSlave De
f387df0785872af6642378cf8b2718ac07180828(Дискография, 2004-2009) Sybreed (Groove Industrial Metal) [APE (image+.cue), lossless] (Дискография, 2004-2009) Sybreed (Groove Industrial Metal) [APE (image+.cue), lossless] " />

Аплоадер: Админ, дата: 14-02-2012, 13:44, торрент скачан: 359 раз

Понравилась раздача? Посмотрите эти:
  • (2014) Ozzy Osbourne / Dreamer (Hard Rock, Heavy Metal, Power Ballad) [FLAC ...
  • (Дискография) LUMEN (Punk Rock) [WavPack (image+.cue), lossless]
  • (Дискография) ДЕЛЬФИН (DOLPHIN) (Alternative) [WavPack/image+cue, lossless] ...
  • (2008) Ассаи / Фаталист (Rap) [Ape(image+.cue), lossless]
  • (Дискография) Anberlin (Alternative Rock) [WAVPack (image+.cue) lossless]
  • (2010) Tarja Turunen / What Lies Beneath (Limited Edition) (Symphonic Metal ...
  • (2010) Алиса / Ъ (The Hard Sign) (Hard Rock) [WavPack (iso.wv (image+.cue)) ...
  • (2007) Константин Никольский / Иллюзии (Rock) [APE (image + .cue), lossless ...
  • (Дискография) Supertramp (Progressive & Art-Rock) [APE/FLAC (image/tracks+. ...
  • (Дискография, 2002-2010) The Birthday Massacre (Gothic Rock/Industrial) [AL ...
  • (Дискография, 1988-2011) Kingdom Come (Hard&Heavy,Glam Metal) [FLAC (image+ ...
  • (2010) 2Pac / Greatest Hits (Rap & Hip Hop) [APE (image+.cue), lossless]
  • (Дискография 2007-2011) Myrath (Progressive Metal/Ethnic Metal) [APE,FLAC ( ...
  • (2012) Pantera / Vulgar Display Of Power (20th Anniversary Edition 2012) (A ...
  • (Дискография, 2009-2010) Apati (Black Metal/Depressive Rock) [APE/FLAC (ima ...
  • (2011) Rammstein / Mein Land (Neue Deutsche Harte, Industrial, Tanz-Metal) ...
  • (2011) Metallica / Beyond Magnetic (Thrash Metal) [FLAC (image+.cue), lossl ...
  • (2012) Adrenaline Mob / Omerta (Heavy Metal/Progressive/Nu-Metal) [FLAC (im ...
  • (2012) Soulfly / Enslaved [Deluxe Edition] (Groove Metal/Thrash Metal) [FLA ...
  • (2011) Lou Reed & Metallica / Lulu (Heavy Metal, Hard Rock) [FLAC (image+.c ...
  • Информация
    Посетители, находящиеся в группе Гости, не могут оставлять комментарии к данной публикации.