вход на сайт

Имя пользователя :
Пароль :

Восстановление пароля Регистрация
(Дискография, 2006-2010) Черный кузнец (Heavy Power Metal) [WavPack (image + embedded cue sheet), lossless]
Рейтинг:
(голосов: 1)



[img]{THEME}/images/logopost.png[/img]



Дискография
Исполнитель: Черный кузнец
Страна: Россия
Жанр: Heavy Power Metal
Формат: WavPack (image + embedded cue sheet)
Битрейт: lossless
Продолжительность: 01:35:57

Об исполнителе: Чёрный Кузнец — метал-группа из России, играющая в стиле классического хэви и пауэр. Для меня, как и для многих других (альбом 2009 года занял на rutracker.org первое место в опросе на лучший альбом года), альбом стал не только открытием, но и эдаким душевным откровением! Советую многим, записей немного, но они заслуживают внимания (особенно последний сингл, где в мультимедиа контенте есть ещё и трибьют на Вивальди).

"Чёрный Кузнец - 2006 - Demo 05-06" ▼

Продолжительность: 00:24:07

Треклист:
01. Preludia H-moll, op.5, ed.2 (2:05)
02. Иуда (4:05)
03. Звезда (6:27)
04. Чёрный Кузнец (5:25)
05. Highway Star (live Deep Purple cover) (6:05)

Лог создания рипа ▼TextExact Audio Copy V0.99 prebeta 4 from 23. January 2008

Отчёт EAC об извлечении, выполненном 5. февраля 2009, 8:16

Черный Кузнец / Демо 05-06

Дисковод: HL-DT-STRW/DVD GCC-4521B Adapter: 0 ID: 2

Режим чтения : Достоверность
Использование точного потока : Да
Отключение кэша аудио : Да
Использование указателей C2 : Нет

Коррекция смещения при чтении : 6
Способность читать области Lead-in и Lead-out : Нет
Заполнение пропущенных сэмплов тишиной : Да
Удаление блоков с тишиной в начале и конце : Нет
При вычислениях CRC использовались нулевые сэмплы : Да
Интерфейс : Установленный внешний ASPI-интерфейс

Выходной формат : Внутренние WAV-операции
Формат сэмплов : 44.100 Гц; 16 бит; стерео


TOC извлечённого CD

Трек | Старт | Длительность | Начальный сектор | Конечный сектор
---------------------------------------------------------------------
1 | 0:00.00 | 2:05.17 | 0 | 9391
2 | 2:05.17 | 4:05.07 | 9392 | 27773
3 | 6:10.24 | 6:27.15 | 27774 | 56813
4 | 12:37.39 | 5:24.69 | 56814 | 81182
5 | 18:02.33 | 6:04.71 | 81183 | 108553


Характеристики диапазона извлечения и сообщения об ошибках

Выбранный диапазон

Имя файла E:Черный Кузнец - Демо 05-06.wav

Пиковый уровень 100.0 %
Качество диапазона 99.7 %
CRC копии 7929EDBF
Копирование... OK

Ошибок не произошло

Конец отчёта


Лог проверки качества ▼TextfooCDtect - foobar2000 + auCDtect, baralgin.

auCDtect: CD records authenticity detector, version 0.8.2
Copyright (c) 2004 Oleg Berngardt. All rights reserved.
Copyright (c) 2004 Alexander Djourik. All rights reserved.

mode: 0

===========================================
Track: Чёрный Кузн
439c3d1d176ed7fad874272cdf0ae920f7e1e6ff(Дискография, 2006-2010) Черный кузнец (Heavy Power Metal) [WavPack (image + embedded cue sheet), lossless] (Дискография, 2006-2010) Черный кузнец (Heavy Power Metal) [WavPack (image + embedded cue sheet), lossless] " />

Аплоадер: Админ, дата: 22-01-2012, 12:51, торрент скачан: 359 раз

Понравилась раздача? Посмотрите эти:
  • (1989, 1991, 1992, 1993) Nirvana — 4 альбома (Grunge) [WavPack (image+.cue) ...
  • (2006)R-Tem - Voiceless Гимн Казантипа (Progressive House) [APE (image + cu ...
  • (дискография, 1983-2008) MADONNA (pop / dance) [WavPack (image+.cue) lossle ...
  • (2009) НОЧНЫЕ СНАЙПЕРЫ — Южный полюс (русский рок, сингл) [FLAC (lossless), ...
  • (2009) НОЧНЫЕ СНАЙПЕРЫ — Живаго в Лужниках (русский рок) [WAVPack (lossless ...
  • (2009) СЕРГЕЙ НАГОВИЦЫН / The Best Of - 2009 (Шансон) [FLAC (image+.cue) lo ...
  • (2000) Tic Tac Toe / Ist der Ruf erst ruiniert... (Rap,Hip-hop) [Lossless, ...
  • (2010) ST1M / Октябрь (Rap) [APE(image+.cue), lossless]
  • (2006) Батырхан Шукенов/ Отан Ана (Pop) [FLAC (image+.cue) lossless]
  • (2010) ДиДюЛя / Аромат (flamenco, instrumental, folk) [APE (image + .cue), ...
  • (2010) ДаБац (Da Budz) / Вершки Да Корешки(Rap) [APE (image+.cue), lossless ...
  • (2010) БИ-2 / О чём говорят мужчины (Pop-Rock) [FLAC (image + .cue), lossle ...
  • (2011) Within Temptation / The Unforgiving (Symphonic Gothic Metal) [FLAC ( ...
  • (2011) АлисА / 20.12 (Русский Рок) [WavPack (image+.cue), lossless]
  • (2011) Blues Cousins / KGB Blues (Blues Rock) [FLAC (image+.cue), lossless] ...
  • (2011) АукцЫон / Юла (Rock) [APE (image+.cue), lossless]
  • (Дискография, 1986 - 1999) Crimson Glory (Progressive Heavy Metal) [FLAC (i ...
  • (Дискография, 1983-1997) Stevie Ray Vaughan (Blues) [APE (image+.cue), loss ...
  • (1989) Motley Crue / Dr. Feelgood (Hard Rock, Heavy metal, Glam metal) [APE ...
  • (Дискография) Баста / Ноггано (Russian Rap) [WAVPack (image+.cue) lossless] ...
  • (2009) Земфира / Z-Sides (Rock) [FLAC(image+.cue), lossless ]
  • (2006) Би-2 / Лучшие песни (Rock) [FLAC (image+.cue), lossless]
  • (2011) Iron Savior / The Landing (Limited Edition) (Power/Heavy Metal) [FL ...
  • (1995) Юрий Шатунов / Ты помнишь... (Pop) [FLAC(image+.cue), lossless]
  • (2008) Студия 80 / Придуманный Мир (Pop) [FLAC (image+.cue), lossless]
  • Информация
    Посетители, находящиеся в группе Гости, не могут оставлять комментарии к данной публикации.