вход на сайт

Имя пользователя :
Пароль :

Восстановление пароля Регистрация
(2011) Waltari / Covers All (The 25th Anniversary Album) (Alternative Metal/Experimental Metal) [FLAC (image+.cue), lossless]
Рейтинг:
(голосов: 1)



[img]{THEME}/images/logopost.png[/img]





Альбом: Covers All (The 25th Anniversary Album)
Тип альбома: Compilation
Год выпуска: 2011
Страна: Финляндия
Жанр: Alternative Metal/Experimental Metal
Формат: FLAC (image+.cue)
Битрейт: lossless
Log-файл: Присутствует
Продолжительность: 01:13:00



01.P.L.U.C.K. (System Of A Down cover)[03:49]
02.Give It To Me (Madonna cover)[04:17]
03.Dead Heart (Midnight Oil cover)[03:38]
04.Heroin Duke (Dingo cover)[04:52]
05.Look Back In Anger (David Bowie cover)[03:09]
06.Caught In A Mosh (Anthrax cover)[04:03]
07.Plastic Ships (Hassisen Kone cover)[03:21]
08.One Hundred Years (The Cure cover)[06:28]
09.Infinite Dreams (Iron Maden cover)[07:18]
10.Saucerful Of Secrets (Pink Floyd cover)[32:01]


Отчет "EAC" ▼TextExact Audio Copy V1.0 beta 2 from 29. April 2011

Отчёт EAC об извлечении, выполненном 22. ноября 2011, 21:05

Waltari / Covers All - The 25th Anniversary Album

Дисковод: ATAPI iHAS324 A Adapter: 2 ID: 1

Режим чтения : Достоверность
Использование точного потока : Да
Отключение кэша аудио : Да
Использование указателей C2 : Нет

Коррекция смещения при чтении : 6
Способность читать области Lead-in и Lead-out : Нет
Заполнение пропущенных сэмплов тишиной : Да
Удаление блоков с тишиной в начале и конце : Нет
При вычислениях CRC использовались нулевые сэмплы : Да
Интерфейс : Встроенный Win32-интерфейс для Win NT/2000

Выходной формат : Пользовательский кодировщик
Выбранный битрейт : 320 kBit/s
Качество : Высокий
Добавление ID3-тега : Нет
Утилита сжатия : C:Program FilesFLACflac.exe
Дополнительные параметры : -V -8 -T "Date=%year%" -T "Genre=%genre%" %source%

TOC извлечённого CD

Трек | Старт | Длительность | Начальный сектор | Конечный сектор
---------------------------------------------------------------------
1 | 0:00.00 | 3:48.74 | 0 | 17173
2 | 3:48.74 | 4:17.50 | 17174 | 36498
3 | 8:06.49 | 3:38.65 | 36499 | 52913
4 | 11:45.39 | 4:52.50 | 52914 | 74863
5 | 16:38.14 | 3:09.59 | 74864 | 89097
6 | 19:47.73 | 4:02.72 | 89098 | 107319
7 | 23:50.70 | 3:21.02 | 107320 | 122396
8 | 27:11.72 | 6:28.24 | 122397 | 151520
9 | 33:40.21 | 7:18.62 | 151521 | 18
ad6fb0db0a8a6aee189c8765103ece25648df049(2011) Waltari / Covers All (The 25th Anniversary Album) (Alternative Metal/Experimental Metal) [FLAC (image+.cue), lossless] (2011) Waltari / Covers All (The 25th Anniversary Album) (Alternative Metal/Experimental Metal) [FLAC (image+.cue), lossless] " />

Аплоадер: Админ, дата: 25-12-2011, 23:31, торрент скачан: 359 раз

Понравилась раздача? Посмотрите эти:
  • (1993) Coverdale & Page / Coverdale & Page (EMI Holland)(Hard Rock) [FLAC ( ...
  • (2000) a-ha / Minor Earth | Major Sky (Alternative Rock, Synth-pop ) [FLAC ...
  • (2013) Al Di Meola / All Your Life (Fusion) [FLAC (image+.cue), lossless]
  • (2013) Баста / Баста 4 (Rap, Hip-Hop) [FLAC (Tracks+.Cue), Lossless]
  • (2013) Loc-Dog & Tony VA / Все знают всё (Rap, Hip-Hop) [FLAC (Tracks+.Cue ...
  • (2012) Рем Дигга / Черника (Rap) [FLAC (tracks+.cue), lossless]
  • (2010) Schiller / Breathless (Electronic) [FLAC (image+.cue), lossless]
  • (2006) Tokio / puls 200 (Alternative Rock / Pop Rock) [FLAC (image+.cue) lo ...
  • (2010) БИ-2 / О чём говорят мужчины (Pop-Rock) [FLAC (image + .cue), lossle ...
  • (2011) Within Temptation / The Unforgiving (Symphonic Gothic Metal) [FLAC ( ...
  • (2011) ДДТ / Иначе/P.S. (Русский Рок) [FLAC(image+.cue), lossless]
  • (2011) Rammstein / Made In Germany 1995-2011 (2CD) (Industrial Metal/Tanz-M ...
  • (1997) Jazz Cafe / Simple Pleasures (Jazz, instrumental) [FLAC (image+.сue ...
  • (2012) The Rasmus / The Rasmus (Alternative Rock/Melodic Rock) [FLAC (track ...
  • (2012) KREC / Молча проще (Rap) [FLAC (tracks+.cue), lossless]
  • (2012) Rammstein / Mein Herz brennt (Industrial, Tanz-Metal) [FLAC (tracks ...
  • (2006) УЛЫТАУ / ULYTAU - Жумыр-Кылыш / Jumyr-Kylysh (ethnic / folk metal / ...
  • (1986) Dark Angel / Darkness Descends (Thrash Metal) [FLAC (image+.cue), lo ...
  • (2011) Ассаи / ОМ (Rap) [FLAC (tracks+.cue), lossless]
  • (2011) Iron Savior / The Landing (Limited Edition) (Power/Heavy Metal) [FL ...
  • (2011) Waltari / Covers All (The 25th Anniversary Album) (Alternative Metal ...
  • (2012) Paradise Lost / Tragic Idol (Limited Edition) (Gothic Rock, Metal) [ ...
  • (2011) Paradise Lost / Draconian Times MMXI (Limited Edition) (Gothic Rock, ...
  • (2012) Ария / Live In Studio (Heavy Metal) [FLAC (image+.сue), lossless]
  • (2008) Nirvana / The Best Of (Grunge, Alternative) [FLAC (image+.сue), loss ...
  • Информация
    Посетители, находящиеся в группе Гости, не могут оставлять комментарии к данной публикации.