вход на сайт

Имя пользователя :
Пароль :

Восстановление пароля Регистрация
(2001) Bloodthorn / Under the Reign of Terror (Black/Death Metal) [Flac(tracks+.cue)lossless]
Рейтинг:
(голосов: 1)



[img]{THEME}/images/logopost.png[/img]






Альбом: Under the Reign of Terror
Тип альбома: Студийный
Год выпуска: 2001
Лейбл: Red Stream Records
Номер по каталогу: RSR 0141
Страна: Norway
Жанр: Black/Death Metal
Формат: Flac(tracks+.cue)
Битрейт: lossless
Продолжительность: 00:38:07


▼01.After the Attack(04:18)
02.Age of Suffering(04:24)
03.Deathcrush (Mayhem Cover)(03:48)
04.Deathmachine(04:54)
05.Demonblood(05:27)
06.Fields of Blood(05:31)
07.Mass Destruction(03:55)
08.The Return of Wrath(05:47)


Лог создания рипа ▼Exact Audio Copy V0.99 prebeta 5 from 4. May 2009

EAC extraction logfile from 23. September 2011, 14:43

Bloodthorn / Under the Reign of Terror

Used drive: HL-DT-STDVDRAM GSA-T20N Adapter: 1ID: 0

Read mode : Secure
Utilize accurate stream : Yes
Defeat audio cache: Yes
Make use of C2 pointers : No

Read offset correction: 667
Overread into Lead-In and Lead-Out: No
Fill up missing offset samples with silence : Yes
Delete leading and trailing silent blocks : No
Null samples used in CRC calculations : Yes
Used interface: Native Win32 interface for Win NT & 2000
Gap handling: Appended to previous track

Used output format : Internal WAV Routines
Sample format: 44.100 Hz; 16 Bit; Stereo


TOC of the extracted CD

Track | Start|Length| Start sector | End sector
---------------------------------------------------------
1|0:00.00 |4:54.16 | 0|22065
2|4:54.16 |5:47.21 | 22066|48111
3| 10:41.37 |5:27.58 | 48112|72694
4| 16:09.20 |4:24.37 | 72695|92531
5| 20:33.57 |5:31.45 | 92532| 117401
6| 26:05.27 |3:55.49 |117402| 135075
7| 30:01.01 |4:18.14 |135076| 154439
8| 34:19.15 |3:48.41 |154440| 171580


Track1

Filename D:lossless1. Bloodthorn – Deathmachine.wav

 
2845540061200a575b07f32f24d32965974f73b8(2001) Bloodthorn / Under the Reign of Terror (Black/Death Metal) [Flac(tracks+.cue)lossless] (2001) Bloodthorn / Under the Reign of Terror (Black/Death Metal) [Flac(tracks+.cue)lossless] " />

Аплоадер: Админ, дата: 23-09-2011, 17:51, торрент скачан: 359 раз

Понравилась раздача? Посмотрите эти:
  • (2009) ONE REPUBLIC / Waking Up (Pop-Rock/Alternative) [FLAC (tracks+.cue) ...
  • (2009) SHAKIRA / She Wolf (US Edition) (Pop) [Flac (tracks+.cue), lossless] ...
  • (2010)Scorpions/Sting In The Tail [FLAC (tracks+cue), lossless]
  • (2010) Deftones / Diamond Eyes (Nu metal / Alternative) [FLAC, (tracks+ cu ...
  • (2008) Pink / Funhouse (Pop) [FLAC (tracks) lossless]
  • (Дискография) GORILLAZ (Trip-Hop) [FLAC (tracks + .cue) lossless]
  • (2010) Баста и Гуф / Баста / Гуф (Rap) [FLAC (tracks+.cue) lossless]
  • (2010) Michael Jackson - Michael (Pop) [FLAC, (tracks+.cue), lossless]
  • (2010) Unkle - Where Did The Night Fall, (Electronic, Trip-Hop), [FLAC (tra ...
  • (2006) Великие Композиторы / Жизнь и Творчество - Шопен (Classical) [Flac(t ...
  • (2006) Великие Композиторы / Жизнь и Творчество - Бетховен (Classical) [Fla ...
  • (2009) Koan / When The Silence Is Speaking (Ambient, Downtempo, Chillout) [ ...
  • (2009) Linkin Park / Underground 09/LPU 9 (Alt.Rock/Nu-Metal) [FLAC (track ...
  • (2010) Ne-Yo / Libra Scale (Japanese Edition) (RnB) [FLAC (tracks+.cue) los ...
  • (2010) Rihanna / Loud (R&B) [FLAC (tracks+.cue), lossless]
  • (2003) DJ Zinc / Faster (DnB, Breaks) [ FLAC (tracks+.cue), lossless]
  • (2010) Morcheeba / Blood Like Lemonade ( Electronic, Downtempo, Pop, Trip-h ...
  • (2010) Кукрыниксы / Всадники Света (Punk Rock) [FLAC (tracks+.cue), lossles ...
  • (2011) Electric Universe / Higher Modes (Psytrance, Full On) [FLAC (tracks+ ...
  • (2008) Scars on Broadway / Scars on Broadway (Japan Edition) (Alt.Metal/Exp ...
  • (2011) Revocation / Chaos of Forms (Death Metal/Thrash) [FLAC (tracks+.cue) ...
  • (2009) Exivious (Ex. Cynic) / Exivious (Progressive Metal/Death Metal) [FLA ...
  • (2012) Оргия Праведников / Шитрок (Rock/Progressive Rock) [FLAC (tracks+cue ...
  • (2011) The Soulless / Isolated (Melodic Death Metal/Metalcore) [FLAC (track ...
  • (2011) Skindred / Union Black (Alternative Metal, Ragga-Metal) [FLAC (track ...
  • Информация
    Посетители, находящиеся в группе Гости, не могут оставлять комментарии к данной публикации.