вход на сайт

Имя пользователя :
Пароль :

Восстановление пароля Регистрация
(2011) Scar Symmetry / The Unseen Empire (Melodic Death Metal) [FLAC (image+.cue) lossless]
Рейтинг:
(голосов: 1)



[img]{THEME}/images/logopost.png[/img]



Исполнитель: Scar Symmetry
Альбом: The Unseen Empire
Страна: Sweden
Тип альбома: Студийный
Год выпуска: 2011
Жанр: Melodic Death Metal
Формат: FLAC (image+.cue) lossless
Продолжительность: 00:43:10

Tреклист:
01. The Anomaly (03:50)
02. Illuminoid Dream Sequence (05:00)
03. Extinction Mantra (05:31)
04. Seers Of The Eschaton (05:51)
05. Domination Agenda (04:00)
06. Astronomicon (04:03)
07. Rise Of The Reptilian Regime (04:24)
08. The Draconian Arrival (05:25)
09. Alpha And Omega (05:01)

"Отчет EAC" ▼TextExact Audio Copy V0.99 prebeta 4 from 23. January 2008

EAC extraction logfile from 28. April 2011, 2:30

Scar Symmetry / The Unseen Empire

Used drive : ATAPI iHAP122 9 Adapter: 3 ID: 0

Read mode : Secure
Utilize accurate stream : Yes
Defeat audio cache : Yes
Make use of C2 pointers : No

Read offset correction : 6
Overread into Lead-In and Lead-Out : No
Fill up missing offset samples with silence : Yes
Delete leading and trailing silent blocks : No
Null samples used in CRC calculations : Yes
Used interface : Installed external ASPI interface

Used output format : User Defined Encoder
Selected bitrate : 40 kBit/s
Quality : High
Add ID3 tag : No
Command line compressor : C:Program FilesExact Audio Copyflac.exe
Additional command line options : -6 -V %s


TOC of the extracted CD

Track | Start | Length | Start sector | End sector
---------------------------------------------------------
1 | 0:00.00 | 3:50.66 | 0 | 17315
2 | 3:50.66 | 5:00.27 | 17316 | 39842
3 | 8:51.18 | 5:31.48 | 39843 | 64715
4 | 14:22.66 | 5:51.17 | 64716 | 91057
5 | 20:14.08 | 4:00.18 | 91058 | 109075
6 | 24:14.26 | 4:03.59 | 109076 | 127359
7 | 28:18.10 | 4:24.54 | 127360 | 147213
8 | 32:42.64 | 5:25.26 | 147214 | 171614
9 | 38:08.15 | 5:01.73 | 171615 | 194262


Range status and errors

Selected range

Filename D:DownloadScar Symmetry - The Unseen Empire.wav

Peak level 98.9 %
Range quality 100.0 %
Copy CRC E30034E9
Copy OK

No errors occurred


AccurateRip summary

Track 1 not present in database
Track 2 not present in database
Track 3 not present in database
Track 4 not present in data
3eaf98a101d1e8e5a99dd2a787e2b09a99690193(2011) Scar Symmetry / The Unseen Empire (Melodic Death Metal) [FLAC (image+.cue) lossless] (2011) Scar Symmetry / The Unseen Empire (Melodic Death Metal) [FLAC (image+.cue) lossless] " />

Аплоадер: Админ, дата: 30-05-2011, 21:22, торрент скачан: 359 раз

Понравилась раздача? Посмотрите эти:
  • (2013) Мумий Тролль / SOS Матросу - 2013, (Rock) [FLAC (image+.cue), lossle ...
  • (1989) Kaoma / Lambada (lambada / latin / ethnic) [FLAC (image+.cue), lossl ...
  • (2010) Ассаи / Лифт (Rap) [FLAC(image+.cue), lossless]
  • (2010) Tarja Turunen / What Lies Beneath (Limited Edition) (Symphonic Metal ...
  • (2011) Sepultura / Kairos (Thrash Metal) [Flac(image+.cue)lossless]
  • (2012) Axel Rudi Pell / Circle Of The Oath (Limited Edition Digipack) (Melo ...
  • (2012) Linkin Park / Burn It Down (Alternative Rock) (Single) [FLAC (image+ ...
  • (2012) Kreator / Phantom Antichrist (Thrash Metal) [FLAC (image+.cue), loss ...
  • (Дискография, 1987-1999) Obliveon (Technical Thrash Metal) [FLAC (image+.cu ...
  • (2011) VA / Танцевальный Рай 27 (Pop) [FLAC (image+.cue), lossless]
  • (2011) Linkin Park / Iridescent (Alternative Rock) [FLAC(image+.cue), lossl ...
  • (2011) Stargazery / Eye On The Sky (Heavy Metal) [FLAC (image+.cue), lossle ...
  • (2011) JORN / Live In Black (Heavy/Progressive Metal ) [FLAC (image+.cue), ...
  • (2011) Rammstein / Mein Land (Neue Deutsche Harte, Industrial, Tanz-Metal) ...
  • (2011) Adriano Celentano / Facciamo Finta Che Sia Vero (POP) [FLAC (image+. ...
  • (2011) Сурганова & Оркестр / Увидимся скоро (Rock) [FLAC (image+.cue), loss ...
  • (2011) Metallica / Beyond Magnetic (Thrash Metal) [FLAC (image+.cue), lossl ...
  • (2012) Adrenaline Mob / Omerta (Heavy Metal/Progressive/Nu-Metal) [FLAC (im ...
  • (2012) Crippled Black Phoenix / (Mankind) The Crafty Ape (Alternative/Indie ...
  • (2012) Fox / 2012 (Melodic Hard Rock) [FLAC (image +.cue), lossless]
  • (2010) Татьяна Буланова / Романсы (Pop) [FLAC (image+.cue), lossless]
  • (2011) The Soulless / Isolated (Melodic Death Metal/Metalcore) [FLAC (track ...
  • (2012) Game Over / For Humanity (Thrash Metal) [FLAC (image+.cue), lossless ...
  • (2011) Lou Reed & Metallica / Lulu (Heavy Metal, Hard Rock) [FLAC (image+.c ...
  • (2010) Punish My Heaven / First Punishment (Melodic Death Metal, Metalcore) ...
  • Информация
    Посетители, находящиеся в группе Гости, не могут оставлять комментарии к данной публикации.