вход на сайт

Имя пользователя :
Пароль :

Восстановление пароля Регистрация
(2010) Tarja Turunen / What Lies Beneath (Limited Edition) (Symphonic Metal) [APE (image+.cue)lossless]
Рейтинг:
(голосов: 1)



[img]{THEME}/images/logopost.png[/img]



Исполнитель: Tarja Turunen
Альбом: What Lies Beneath (Limited Edition)
Тип альбома: Студийный (LP) + Bonus
Год выпуска: 2010
Жанр: Symphonic Metal
Формат: APE (image+.cue)
Битрейт: lossless
Продолжительность: 00:54:57+00:18:08

Tреклист:
01. Anteroom Of Death (4:41)
02. Until My Last Breath (4:44)
03. I Feel Immortal (4:35)
04. In For A Kill (4:38)
05. Underneath (5:27)
06. Little Lies (4:37)
07. Rivers Of Lust (4:24)
08. Dark Star (4:33)
09. Falling Awake (5:14)
10. The Archive Of Lost Dreams (4:49)
11. Crimson Deep (7:35)

Bonus CD:
01. We Are (4:16)
02. Naiad (7:19)
03. Still Of The Night (6:33)

"Отчет EAC" ▼
TextExact Audio Copy V0.99 prebeta 5 from 4. May 2009
EAC extraction logfile from 12. September 2010, 14:40
Tarja / What Lies Beneath (Limited Edition)
Used drive : PLEXTOR DVDR PX-755A Adapter: 0 ID: 0
Read mode : Secure
Utilize accurate stream : Yes
Defeat audio cache : Yes
Make use of C2 pointers : No
Read offset correction : 30
Overread into Lead-In and Lead-Out : No
Fill up missing offset samples with silence : Yes
Delete leading and trailing silent blocks : No
Null samples used in CRC calculations : Yes
Used interface : Installed external ASPI interface
Used output format : Monkeys Audio Lossless Encoder
Selected bitrate : High Lossless Compression
Quality : High
Add ID3 tag : Yes
Command line compressor : C:Program FilesMonkeys AudioMAC.exe
TOC of the extracted CD
Track | Start | Length | Start sector | End sector
---------------------------------------------------------
1 | 0:00.00 | 4:41.10 | 0 | 21084
2 | 4:41.10 | 4:24.02 | 21085 | 40886
3 | 9:05.12 | 4:35.25 | 40887 | 61536
4 | 13:40.37 | 4:38.13 | 61537 | 82399
5 | 18:18.50 | 5:26.55 | 82400 | 106904
6 | 23:45.30 | 4:37.05 | 106905 | 127684
7 | 28:22.35 | 4:23.47 | 127685 | 147456
8 | 32:46.07 | 4:32.70 | 147457 | 167926
9 | 37:19.02 | 5:13.63 | 167927 | 191464
10 | 42:32.65 | 4:49.00 | 191465 | 213139
11 | 47:21.65 | 7:35.05 | 213140 | 247269
Range status and errors
Selected range
Filename D:Tarja - What Lies Beneath (Limited Edition).wav
Peak level 98.8 %
Range quality 100.0 %
Copy CRC 983C3D62
Copy OK
No errors occurred
End of status report
TextExact Audio Copy V0.99 prebeta 5 from 4. May 2009
EAC extraction logfi
15272766fae0aad4109b20a30190f9fb2c372e0a(2010) Tarja Turunen / What Lies Beneath (Limited Edition) (Symphonic Metal) [APE (image+.cue)lossless] (2010) Tarja Turunen / What Lies Beneath (Limited Edition) (Symphonic Metal) [APE (image+.cue)lossless] " />

Аплоадер: Админ, дата: 21-10-2010, 10:48, торрент скачан: 359 раз

Понравилась раздача? Посмотрите эти:
  • (1989) Kaoma / Lambada (lambada / latin / ethnic) [FLAC (image+.cue), lossl ...
  • (2010) Ассаи / Лифт (Rap) [FLAC(image+.cue), lossless]
  • (2007) Константин Никольский / Иллюзии (Rock) [APE (image + .cue), lossless ...
  • (2010) YELLO / Yello By Yello. The Anthology (Limited Deluxe Edition 3CD+D ...
  • (2011) Scar Symmetry / The Unseen Empire (Melodic Death Metal) [FLAC (image ...
  • (1984) Van Halen / 1984 (Japanese 1984 SHM-CD Edition) (Hard & Heavy) [APE ...
  • (2011) 3 Doors Down / Time Of My Life [Deluxe Edition] (Alternative Rock/Po ...
  • (2012) Axel Rudi Pell / Circle Of The Oath (Limited Edition Digipack) (Melo ...
  • (2012) Moonspell / Alpha Noir - Omega White (Limited Edition) (Gothic, Extr ...
  • (2012) Kreator / Phantom Antichrist (Thrash Metal) [FLAC (image+.cue), loss ...
  • (2012) Pantera / Vulgar Display Of Power (20th Anniversary Edition 2012) (A ...
  • (2011) Metallica / Beyond Magnetic (Thrash Metal) [FLAC (image+.cue), lossl ...
  • (2012) RAGE / 21 (Limited Edition, 2CD) (Heavy Metal/Thrash Metal) [FLAC ( ...
  • (2012) Adrenaline Mob / Omerta (Heavy Metal/Progressive/Nu-Metal) [FLAC (im ...
  • (2012) Fox / 2012 (Melodic Hard Rock) [FLAC (image +.cue), lossless]
  • (2011) Tarja Turunen & Harus / In Concert: Live at Sibelius Hall (Symphonic ...
  • (2011) Lou Reed & Metallica / Lulu (Heavy Metal, Hard Rock) [FLAC (image+.c ...
  • (2010) Punish My Heaven / First Punishment (Melodic Death Metal, Metalcore) ...
  • (2012) Tarja Turunen / Act I (Live) (Symphonic Metal) [MP3, 320/CBR]
  • Tarja Turunen / Live in Minsk, Belarus [2012, Symphonic, Gothic Metal, HDCa ...
  • Информация
    Посетители, находящиеся в группе Гости, не могут оставлять комментарии к данной публикации.