вход на сайт

Имя пользователя :
Пароль :

Восстановление пароля Регистрация
(2010) Deftones / Diamond Eyes (Nu metal / Alternative) [FLAC, (tracks+ cue) lossless]
Рейтинг:
(голосов: 1)



[img]{THEME}/images/logopost.png[/img]



Исполнитель: Deftones
Альбом: Diamond Eyes
Тип альбома: Студийный (LP)
Год выпуска: 2010
Жанр: Alternative Rock, Nu Metal
Формат: FLAC (tracks+.cue)
Битрейт: lossless
Продолжительность: 00:41:21

Трэклист:

[03:08] 01. Deftones - Diamond Eyes
[03:32] 02. Deftones - Royal
[02:25] 03. Deftones - CMND/CTRL
[03:31] 04. Deftones - You`ve Seen The Butcher
[04:47] 05. Deftones - Beauty School
[03:36] 06. Deftones - Prince
[04:17] 07. Deftones - Rocket Skates
[04:01] 08. Deftones - Sextape
[03:38] 09. Deftones - Risk
[04:32] 10. Deftones - 976-Evil
[03:48] 11. Deftones - This Place Is Death

Отчет EAC:
▼Exact Audio Copy V0.99 prebeta 5 from 4. May 2009
EAC extraction logfile from 30. April 2010, 21:33
Deftones / Diamond Eyes
Used drive: Optiarc DVD RW AD-7170S Adapter: 6ID: 0
Read mode : Secure
Utilize accurate stream : Yes
Defeat audio cache: Yes
Make use of C2 pointers : No
Read offset correction: 48
Overread into Lead-In and Lead-Out: No
Fill up missing offset samples with silence : Yes
Delete leading and trailing silent blocks : No
Null samples used in CRC calculations : Yes
Used interface: Native Win32 interface for Win NT & 2000
Gap handling: Appended to previous track
Used output format: User Defined Encoder
Selected bitrate: 128 kBit/s
Quality : High
Add ID3 tag : No
Command line compressor : C:Program Files (x86)Exact Audio CopyFlacflac.exe
Additional command line options : -V -8 -T "artist=%a" -T "title=%t" -T "album=%g" -T "date=%y" -T "tracknumber=%n" -T "genre=%m" %s
TOC of the extracted CD
Track | Start|Length| Start sector | End sector
---------------------------------------------------------
1|0:00.00 |3:08.30 | 0|14129
2|3:08.30 |3:32.47 | 14130|30076
3|6:41.02 |2:25.50 | 30077|41001
4|9:06.52 |3:31.11 | 41002|56837
5| 12:37.63 |4:47.63 | 56838|78425
f055fa9151f0bd01d4d18727312c276e9ad582f0(2010) Deftones / Diamond Eyes (Nu metal / Alternative) [FLAC, (tracks+ cue) lossless] (2010) Deftones / Diamond Eyes (Nu metal / Alternative) [FLAC, (tracks+ cue) lossless] " />

Аплоадер: Админ, дата: 10-05-2010, 11:20, торрент скачан: 359 раз

Понравилась раздача? Посмотрите эти:
  • (2009) ONE REPUBLIC / Waking Up (Pop-Rock/Alternative) [FLAC (tracks+.cue) ...
  • (2009) SHAKIRA / She Wolf (US Edition) (Pop) [Flac (tracks+.cue), lossless] ...
  • (2010)Scorpions/Sting In The Tail [FLAC (tracks+cue), lossless]
  • (2010) ПИKНИК / Театр Абсурда (Art-Rock) [FLAC (tracks+.cue), lossless]
  • (2008) Pink / Funhouse (Pop) [FLAC (tracks) lossless]
  • (2010) Eminem / Recovery (Rap / Hip-Hop) [FLAC (tracks+.cue) lossless]
  • (2010) Michael Jackson - Michael (Pop) [FLAC, (tracks+.cue), lossless]
  • (2010) Bloodhound Gang / Show Us Your Hits (Alternative Rock,Comedy Punk) [ ...
  • (2011) Red Hot Chili Peppers / Im With You (Alternative Rock/Funk) [FLAC (t ...
  • (2010) Ne-Yo / Libra Scale (Japanese Edition) (RnB) [FLAC (tracks+.cue) los ...
  • (2010) Rihanna / Loud (R&B) [FLAC (tracks+.cue), lossless]
  • (2003) DJ Zinc / Faster (DnB, Breaks) [ FLAC (tracks+.cue), lossless]
  • (2011) Nero / Welcome Reality (Dubstep / House / Drum & Bass) [FLAC (tracks ...
  • (2010) Morcheeba / Blood Like Lemonade ( Electronic, Downtempo, Pop, Trip-h ...
  • (2010) Linkin Park / A Thousand Suns (Alternative, Electronic) [FLAC (track ...
  • (2008) Scars on Broadway / Scars on Broadway (Japan Edition) (Alt.Metal/Exp ...
  • (2011) Evanescence / Evanescence (Alternative Rock) [FLAC (tracks+.cue), lo ...
  • (2012) The Cranberries / Roses (Alternative Rock / Pop-Rock) [FLAC (tracks+ ...
  • (2011) Skindred / Union Black (Alternative Metal, Ragga-Metal) [FLAC (track ...
  • (2012) Deftones / Koi No Yokan (Alt.Metal / Nu Metal / Progressive) [MP3, 3 ...
  • Информация
    Посетители, находящиеся в группе Гости, не могут оставлять комментарии к данной публикации.