вход на сайт

Имя пользователя :
Пароль :

Восстановление пароля Регистрация
(2013) Love And Death / Between Here & Lost (Nu Metal) [FLAC (tracks+.cue), lossless]
Рейтинг:
(голосов: 1)



[img]{THEME}/images/logopost.png[/img]



Исполнитель: Love And Death
Альбом: Between Here & Lost
Тип альбома: Студийный
Год выпуска: 2013
Страна: США
Жанр: Nu Metal
Аудиокодек: FLAC (tracks+.cue)
Битрейт: lossless
Log-Файл: Присутствует
Продолжительность: 00:42:35



Об альбоме:
▼Брайан «Head» Вэлч — бывший гитарист и один из основателей группы KoRn. Дебютный альбом бывшего гитариста"Korn"(Brian Head Welch)
Состав группы:
Brian «Head» Welch – вокал, гитара
Michael Valentine – бас гитара, бэк вокал
JR Bareis – гитара, бэк вокал
Dan Johnson – ударные



Tреклист:
01. The Abandoning (03:26)
02. Whip It (03:08)
03. Watching the Bottom Fall (03:37)
04. By the Way (03:50)
05. Meltdown (04:06)
06. My Disaster (04:12)
07. I W8 4 U (feat. Mattie Montgomery) (04:31)
08. Fading Away (03:40)
09. Paralyzed (03:42)
10. Chemicals (03:55)
11. Bruises (04:22)

Лог создания рипа▼TextExact Audio Copy V1.0 beta 3 from 29. August 2011
EAC extraction logfile from 23. January 2013, 10:42
Love And Death / Between Here & Lost
Used drive : HL-DT-STDVDRAM GSA-4084N Adapter: 0 ID: 0
Read mode : Secure
Utilize accurate stream : Yes
Defeat audio cache : Yes
Make use of C2 pointers : No
Read offset correction : 667
Overread into Lead-In and Lead-Out : No
Fill up missing offset samples with silence : Yes
Delete leading and trailing silent blocks : No
Null samples used in CRC calculations : Yes
Used interface : Native Win32 interface for Win NT & 2000
Gap handling : Appended to previous track
Used output format : User Defined Encoder
Selected bitrate : 1024 kBit/s
Quality : High
Add ID3 tag : No
Command line compressor : C:Program FilesExact Audio CopyFlacflac.exe
Additional command line options : -8 -V -T "ARTIST=%artist%" -T "TITLE=%title%" -T "ALBUM=%albumtitle%" -T "DATE=%year%" -T "TRACKNUMBER=%tracknr%" -T "GENRE=%genre%" -T "PERFORMER=%albuminterpret%" -T "COMPOSER=%composer%" %haslyrics%--tag-from-file=LYRICS="%lyricsfile%"%haslyrics% -T "ALBUMARTIST=%albumartist%" -T "DISCNUMBER=%cdnumber%" -T "TOTALDISCS=%totalcds%" -T "TOTALTRACKS=%numtracks%" -T "COMMENT=%comment%" %source% -o %dest%
TOC of the extracted CD
Track | Start | Length | Start sector | End sector
---------------------------------------------------------
1 | 0:00.00 | 3:26.62 | 0 | 15511
2 | 3:26.62 | 3:08.19 | 15512 | 29630
3 | 6:35.06 | 3:37.15 | 29631 | 45920
4 | 10:12.21 | 3:50.44 | 45921 | 63214
5 | 14:02.65 | 4:06.26 | 63215 | 81690
6 | 18:09.16 | 4:12.20 | 81691 | 100610
 
3b6138b9dc2e9576f03c0bdd3b6ee0dec236cb7f(2013) Love And Death / Between Here & Lost (Nu Metal) [FLAC (tracks+.cue), lossless] (2013) Love And Death / Between Here & Lost (Nu Metal) [FLAC (tracks+.cue), lossless] " />

Аплоадер: Админ, дата: 11-02-2013, 23:56, торрент скачан: 359 раз

Понравилась раздача? Посмотрите эти:
  • (2013) Buddy Guy / Rhythm & Blues (2CD) (Blues) [FLAC (image+.cue), Lossles ...
  • (2013) Paul McCartney / New (Deluxe Edition) (Rock) [FLAC (image,+.cue), lo ...
  • (2013) Prodigy & The Alchemist / Albert Einstein (Underground Hip-Hop) [FLA ...
  • (2013) Fall Out Boy / Save Rock and Roll (Pop-Punk) [ALAC (tracks), lossles ...
  • (2013) Hans Zimmer / Человек из стали / Man Of Steel [Deluxe Edition] (2 CD ...
  • (2011) Disturbed / The Lost Children (Alternative Metal) [FLAC (tracks+.cue ...
  • (2011) Korn (KoЯn) / The Path Of Totality (Special Edition) (Nu Metal | Dub ...
  • (2012) Katie Melua / Secret Symphony (Jazz Pop, Vocal Jazz) [FLAC (tracks+. ...
  • (2012) Paul Van Dyk / Evolution (Progressive House, Trance) [FLAC (tracks+. ...
  • (2012) Marconi Union / Different Colours (Post Rock, Downtempo, Ambient) [F ...
  • (2008, Сборник) VA / Relax Piano - Yesterday - Trai Tim Mua Thu - Vol.7 (Ne ...
  • (2012) Tomandandy / Resident Evil: Retribution (Score, Soundtrack)[FLAC (tr ...
  • (2012) Sally Night / Love For Sale (Vocal Jazz) [FLAC (tracks+.cue), lossle ...
  • (1996) The Rasmus / Peep (Finnish Version) (Alternative Rock) [FLAC (tracks ...
  • (2012) Usher / Looking 4 Myself (Deluxe Version) (R&B, Soul) [FLAC (tracks+ ...
  • (2011) Mistabishi / Trip (Drum & Bass, Breakbeat) [FLAC (tracks+.cue), loss ...
  • (2012) Buckethead / Electric Sea (Experimental/Acoustic/Ambient/Rock) [FLAC ...
  • (2012) Les Friction / Les Friction (Alt. Rock/Neo-Classical/Orchestral) [FL ...
  • (2011) SeeS / The enD (Progressive/Math Metal) [FLAC (tracks+.cue), lossles ...
  • (2012) Bleeding Through / The Great Fire (Symphonic Metalcore/Hardcore) [FL ...
  • (2012) Our Lady Peace / Curve (Alternative/Rock) [FLAC (tracks+.cue), lossl ...
  • (2011) Terra Tenebrosa / The Tunnels (Atmospheric Sludge Post-Metal/Psyched ...
  • (2012) Nine Lashes / World We View (Alt.Rock/Alt.Metal/Christian) [FLAC (tr ...
  • (2012) Dash Berlin / #musicislife (Trance) [FLAC (tracks+.сue), lossless]
  • (2012) For Today / Immortal (Metalcore, Hardcore, Christian) [FLAC (tracks+ ...
  • Информация
    Посетители, находящиеся в группе Гости, не могут оставлять комментарии к данной публикации.