вход на сайт

Имя пользователя :
Пароль :

Восстановление пароля Регистрация
(2009) Nightwish / Made In Hong Kong (And In Various Other Places) (Sympho-Power Metal) [APE (image+.cue), lossless]
Рейтинг:
(голосов: 1)



[img]{THEME}/images/logopost.png[/img]



Исполнитель: Nightwish
Страна: Finland
Страна-производитель диска: Germany
Альбом: Made In Hong Kong (And In Various Other Places)
Тип альбома: Live
Год выпуска: 2009
Жанр: Symphonic Power Metal
Аудиокодек: APE (*.ape)
Тип рипа: image+.cue
Битрейт: lossless
Продолжительность: 01:06:13
Наличие сканов в содержимом раздачи: Да.

"Состав группы:" ▼
Anette Olzon Blyckert - Vocals (Disdain (Swe), Alyson Avenue)
Tuomas Holopainen - Keyboards (+Vocals 1996/97) (Darkwoods My Betrothed, Furthest Shore, Kotiteollisuus, Nattvindens Gråt, For My Pain..., Sethian, Timo Rautiainen & Trio Niskalaukaus, Timo Rautiainen)
Erno Emppu Vuorinen - Guitars (+Bass 1996/97) (Altaria, Darkwoods My Betrothed, Brother Firetribe, Almah)
Marco Hietala - Bass & Vocals (Tarot (Fin), Sinergy, Northern Kings, Sapattivuosi)
Jukka "Julius" Nevalainen - Drums (Sethian)


Wikipedia | YouTube | last.fm | Official page

Tреклист:
01. Nightwish - Bye Bye Beautiful (04:33)
02. Nightwish - Whoever Brings The Night (04:23)
03. Nightwish - Amaranth (04:16)
04. Nightwish - The Poet And The Pendulum (13:58)
05. Nightwish - Sahara (06:09)
06. Nightwish - The Islander (05:25)
07. Nightwish - Last Of The Wilds (06:30)
08. Nightwish - 7 Days To The Wolves (07:16)
09. Nightwish - Escapist (Album Version) (05:01)
10. Nightwish - While Your Lips Are Still Red (04:23)
11. Nightwish - Cadence Of Her Last Breath (Demo Version) (04:13)


Лог создания рипа (EAC log) ▼TextEAC extraction logfile from 8. March 2009, 13:54 for CD
Nightwish / Made In Hong-Kong

Used drive : ATAPI DVD A DH20A4P Adapter: 3 ID: 0
Read mode : Secure with NO C2, accurate stream, disable cache
Read offset correction : 6
Overread into Lead-In and Lead-Out : No

Used output format : C:Program FilesExact Audio CopyMAC.EXE (Monkeys Audio Lossless Encoder)
High Lossless Compression

Other options :
Fill up missing offset samples with silence : Yes
Delete leading and trailing silent blocks : No
Installed external ASPI interface


Range status and errors
Selected range
Filename D:DownloadCDImage.wav

Peak level 100.0 %
Range quality 100.0 %
CRC BAA9865A
Copy OK

No errors occured

End of status report
Содержание индексной карты (.CUE) ▼TextPERFORMER "Nightwish"
TITLE "Made In Hong-Kong"
FILE "CDImage.ape" WAVE
TRACK 01 AUDIO
TITLE "Bye Bye Beautiful"
PERFORMER "Nightwish"
INDEX 01 00:00:00
TRACK 02 AUDIO
TITLE "Whoever Brings The Night"
PERFORMER "Nightwish"
INDEX 01 04:33:71
TRACK 03 AUDIO
TITLE "Amaranth"
PERFORMER "Nightwish"
INDEX 01 08:57:59
TRACK 04 AUDIO
TITLE "The Poet And The Pendulum"
PERFORMER "Nightwish"
INDEX 01 13:14:31
TRACK 05 AUDIO
TITLE "Sahara"
PERFORMER "Nightwish"
INDEX 01 27:13:03
TRACK 06 AUDIO
TITLE "The Islander"
PERFORMER "Nightwish"
INDEX 01 33:22:56
TRACK 07 AUDIO
TITLE "Last Of The Wilds"
PERFORMER "Nightwish"
INDEX 01 38:47:66
TRACK 08 AUDIO
TITLE "7 Days To The Wolves"
PERFORMER "Nightwish"
INDEX 01 45:18:36
TRACK 09 AUDIO
TITLE "Escapist (Album Version)"
PERFORMER "Nightwish"
&nbs
1419cb975500bd5ada9923a88086a51d43abe1eb(2009) Nightwish / Made In Hong Kong (And In Various Other Places) (Sympho-Power Metal) [APE (image+.cue), lossless] (2009) Nightwish / Made In Hong Kong (And In Various Other Places) (Sympho-Power Metal) [APE (image+.cue), lossless] " />

Аплоадер: Админ, дата: 11-01-2014, 19:06, торрент скачан: 359 раз

Понравилась раздача? Посмотрите эти:
  • (2006) The Beatles / Love (Rock) [24bit - 96kHz] [FLAC(image+.cue), lossles ...
  • (2012) The Doors - L.A. Woman(1971)[lp] [24bit - 96kHz] [FLAC(image+.cue), ...
  • (2013) Buddy Guy / Rhythm & Blues (2CD) (Blues) [FLAC (image+.cue), Lossles ...
  • (2013) Paul McCartney / New (Deluxe Edition) (Rock) [FLAC (image,+.cue), lo ...
  • (2013) Linkin Park & Steve Aoki / A Light That Never Comes (Electronic Rock ...
  • (2007, Сборник) Guitar Heroes / Guitar Heroes (Hard Guitar, Classic, Experi ...
  • (2001) Андрей Алексин / Ш*лава (Pop) [FLAC (image+.cue), lossless]
  • (2011) Disturbed / The Lost Children (Alternative Metal) [FLAC (tracks+.cue ...
  • (2011) Linkin Park / LP Underground 11 (Alternative Rock) [FLAC (Image+cue) ...
  • (Сборник, 1990 - 2005) Enigma - Maxi Singles / 16 альбомов (Abstract, Ambie ...
  • [LP] (2011) Adele / 21 (2 CD) (XL Recordings LP; DMR) (R&B, Soul, Gospel, B ...
  • (1996) The Rasmus / Peep (Finnish Version) (Alternative Rock) [FLAC (tracks ...
  • (2012) Madonna / Superstar (Pop) [FLAC (image+.cue), lossless]
  • [LP] (1984) АНДРЕЙ ПЕТРОВ / Жестокий романс OST [FLAC LP24/96 (image+.cue), ...
  • (2008) Nightwish / Dark Passion Play (DVD-A) (Sympho-Power Metal) [DVD-A: L ...
  • (2012) Nightwish / The Crow, The Owl And The Dove (Sympho-Power Metal) [FLA ...
  • (2011) SeeS / The enD (Progressive/Math Metal) [FLAC (tracks+.cue), lossles ...
  • (2012) Nightwish / Imaginaerum (Tour Edition) (Sympho Power Metal) [FLAC (t ...
  • (2012) Nine Lashes / World We View (Alt.Rock/Alt.Metal/Christian) [FLAC (tr ...
  • (2012) Nightwish / Imaginaerum. The Score (Symphonic Power Metal, Orchestra ...
  • Информация
    Посетители, находящиеся в группе Гости, не могут оставлять комментарии к данной публикации.