вход на сайт

Имя пользователя :
Пароль :

Восстановление пароля Регистрация
(2011) Skindred / Union Black (Alternative Metal, Ragga-Metal) [FLAC (tracks+.cue), lossless]
Рейтинг:
(голосов: 1)



[img]{THEME}/images/logopost.png[/img]



Исполнитель: Skindred
Страна: Великобритания
Альбом: Union Black
Тип альбома:Студийный
Год выпуска:2011
Жанр:Alternative Metal, Ragga-Metal
Формат: FLAC (tracks+.cue)
Битрейт: lossless
Log-файл: Присутствует
Продолжительность: 00:46:08


Wikipedia | Last.fm | Myspace | Official page

Tреклист:
01. Union Black (01:10)
02. Warning (03:50)
03. Cut Dem (03:51)
04. Doom Riff (03:48)
05. Living A Lie (04:26)
06. Guntalk (04:01)
07. Own You (03:32)
08. Make Your Mark (03:41)
09. Get It Now (04:58)
10. Bad Man Ah Bad Man (03:30)
11. Death To All Spies (05:05)
12. Game Over (04:09)


Отчет "EAC" ▼TextExact Audio Copy V1.0 beta 1 from 15. November 2010

EAC extraction logfile from 14. May 2011, 18:04

Skindred / Union Black

Used drive : Optiarc BD ROM BC-5500S4 Adapter: 0 ID: 1

Read mode : Secure
Utilize accurate stream : Yes
Defeat audio cache : Yes
Make use of C2 pointers : No

Read offset correction : 48
Overread into Lead-In and Lead-Out : No
Fill up missing offset samples with silence : Yes
Delete leading and trailing silent blocks : No
Null samples used in CRC calculations : Yes
Used interface : Native Win32 interface for Win NT & 2000
Gap handling : Appended to previous track

Used output format : User Defined Encoder
Selected bitrate : 896 kBit/s
Quality : High
Add ID3 tag : No
Command line compressor : C:Program Files (x86)Exact Audio CopyFlacflac.exe
Additional command line options : -V -8 -T "artist=%a" -T "title=%t" -T "album=%g" -T "date=%y" -T "tracknumber=%n" -T "genre=%m" %s


TOC of the extracted CD

Track | Start | Length | Start sector | End sector
---------------------------------------------------------
1 | 0:00.00 | 1:10.47 | 0 | 5296
2 | 1:10.47 | 3:50.60 | 5297 | 22606
3 | 5:01.32 | 3:51.19 | 22607 | 39950
4 | 8:52.51 | 3:48.25 | 39951 | 57075
5 | 12:41.01 | 4:26.15 | 57076 | 77040
6 | 17:07.16 | 4:01.43 | 77041 | 95158
7 | 21:08.59 | 3:32.47 | 95159 | 111105
8 | 24:41.31 | 3:41.61 | 111106 | 127741
9 | 28:23.17 | 4:58.54 | 127742 | 150145
10 | 33:21.71 | 3:30.73 | 1
cf8b84b406ea977a790530b1340df7962e4c637f(2011) Skindred / Union Black (Alternative Metal, Ragga-Metal) [FLAC (tracks+.cue), lossless] (2011) Skindred / Union Black (Alternative Metal, Ragga-Metal) [FLAC (tracks+.cue), lossless] " />

Аплоадер: Админ, дата: 2-06-2012, 15:09, торрент скачан: 359 раз

Понравилась раздача? Посмотрите эти:
  • (2011) Disturbed / The Lost Children (Alternative Metal) [FLAC (tracks+.cue ...
  • (2011) Виктория - победительница / Victorious (OST) [FLAC (tracks+.cue), lo ...
  • (2011) B.B. King / Icon (Blues) [FLAC (tracks+.cue), lossless]
  • (2012) Mark Lanegan Band / Blues Funeral (Alternative Rock/Blues Rock) [FLA ...
  • (2012) Marconi Union / Different Colours (Post Rock, Downtempo, Ambient) [F ...
  • (2011) Stargazery / Eye On The Sky (Heavy Metal) [FLAC (image+.cue), lossle ...
  • (2011) Revocation / Chaos of Forms (Death Metal/Thrash) [FLAC (tracks+.cue) ...
  • (2011) Дельфин / Существо (Alternative|Experimental) [FLAC (tracks+.cue), l ...
  • (2011) Ленинград / Хна (Rock) [FLAC (tracks+.cue), lossless]
  • (2011) SeeS / The enD (Progressive/Math Metal) [FLAC (tracks+.cue), lossles ...
  • (2011) Downhere / On The Altar Of Love (Alternative Rock/Christian Rock) [F ...
  • (2011) Volumes / Via (Progressive Metalcore/Math Metal) [FLAC (image+.cue), ...
  • (2011) Vildhjarta / Måsstaden (Progressive Math Metal/Djent) [FLAC (tracks+ ...
  • (2012) Our Lady Peace / Curve (Alternative/Rock) [FLAC (tracks+.cue), lossl ...
  • (2011) Terra Tenebrosa / The Tunnels (Atmospheric Sludge Post-Metal/Psyched ...
  • (2009) Exivious (Ex. Cynic) / Exivious (Progressive Metal/Death Metal) [FLA ...
  • (2012) KoRn feat. Skrillex / Chaos Lives In Everything (UK Promo) (Nu-metal ...
  • (2011) The Soulless / Isolated (Melodic Death Metal/Metalcore) [FLAC (track ...
  • (2012) Nine Lashes / World We View (Alt.Rock/Alt.Metal/Christian) [FLAC (tr ...
  • (2011) Phinehas / Thegodmachine (Metalcore) [FLAC (tracks+.cue), lossless]
  • Информация
    Посетители, находящиеся в группе Гости, не могут оставлять комментарии к данной публикации.