вход на сайт

Имя пользователя :
Пароль :

Восстановление пароля Регистрация
(2011) Ink Stained Promises / Relations. (Metalcore, Hardcore) [FLAC (tracks+.cue), lossless]
Рейтинг:
(голосов: 1)



[img]{THEME}/images/logopost.png[/img]



Исполнитель:Ink Stained Promises
Страна: Швеция
Альбом: Relations.
Тип альбома:EP
Год выпуска:2011
Жанр:Metalcore, Hardcore
Формат: FLAC (tracks+.cue)
Битрейт: lossless
Log-файл: Присутствует
Продолжительность: 00:13:51


Last.fm | Myspace

Tреклист:
01. Broken Island (02:59)
02. Hemera (03:45)
03. Vita (03:32)
04. Confessions (03:33)

Лог создания рипа ▼Text
Exact Audio Copy V1.0 beta 2 from 29. April 2011

EAC extraction logfile from 7. August 2011, 0:47

Ink Stained Promises / Relations

Used drive : TSSTcorpDVD+-RW TS-H653F Adapter: 1 ID: 0

Read mode : Secure
Utilize accurate stream : Yes
Defeat audio cache : Yes
Make use of C2 pointers : No

Read offset correction : 6
Overread into Lead-In and Lead-Out : No
Fill up missing offset samples with silence : Yes
Delete leading and trailing silent blocks : No
Null samples used in CRC calculations : Yes
Used interface : Native Win32 interface for Win NT & 2000
Gap handling : Appended to previous track

Used output format : User Defined Encoder
Selected bitrate : 896 kBit/s
Quality : High
Add ID3 tag : No
Command line compressor : C:Program Files (x86)Exact Audio CopyFlacflac.exe
Additional command line options : -8 -V -T "ARTIST=%artist%" -T "TITLE=%title%" -T "ALBUM=%albumtitle%" -T "DATE=%year%" -T "TRACKNUMBER=%tracknr%" -T "GENRE=%genre%" -T "PERFORMER=%albuminterpret%" -T "COMPOSER=%composer%" %haslyrics%--tag-from-file=LYRICS

TOC of the extracted CD

Track | Start | Length | Start sector | End sector
---------------------------------------------------------
1 | 0:00.00 | 2:59.22 | 0 | 13446
2 | 2:59.22 | 3:45.65 | 13447 | 30386
3 | 6:45.12 | 3:32.43 | 30387 | 46329
4 | 10:17.55 | 3:33.71 | 46330 | 62375

Track 1

Filename M:What.CDInk Stained Promises - Relations (2011) [FLAC]1. Broken Island.wav

Pre-gap length 0:00:02.00

Peak level 97.7 %
Extraction speed 1.6 X
Track quality 99.9 %
Test CRC 1F3AF317
Copy CRC 1F3AF317
Track not present in AccurateRip database
Copy OK

Track 2

Filename M:What.CDInk Stained Promises - Relations (2011) [FLAC]2. Hemera.wav

Pre-gap length 0:00:01.74

Peak level 97.7 %
Extraction speed 2.1 X
Track quality 100.0 %
Test CRC CC4D8071
Copy CRC CC4D8071
Track not present in
b10c3ae9759221b60d917afc31fde4f8bc293779(2011) Ink Stained Promises / Relations. (Metalcore, Hardcore) [FLAC (tracks+.cue), lossless] (2011) Ink Stained Promises / Relations. (Metalcore, Hardcore) [FLAC (tracks+.cue), lossless] " />

Аплоадер: Админ, дата: 1-06-2012, 11:44, торрент скачан: 359 раз

Понравилась раздача? Посмотрите эти:
  • (2013) Girls Generation (SNSD) - Galaxy Supernova / Galaxy Supernova (KPop) ...
  • (2011) Depeche Mode / Personal Jesus 2011 Club Promo (Electronic, Synthpop) ...
  • (2011) Orjan Nilsen / In My Opinion (Trance) [FLAC (tracks+.cue), lossless] ...
  • (2002) PPK (ППК) / ReLoad. Russian Trance (Trance) [FLAC (tracks+cue), loss ...
  • (2010) Ravenna / Debrief (Alt. Rock / Christian Rock / Indie) [FLAC (tracks ...
  • (2011) B.B. King / Icon (Blues) [FLAC (tracks+.cue), lossless]
  • (2012, Сборник) VA / Saxophone Golden Best (Jazz, Smooth Jazz) [FLAC (track ...
  • (2008, Сборник) VA / Relax Piano - Yesterday - Trai Tim Mua Thu - Vol.7 (Ne ...
  • (2012) Tomandandy / Resident Evil: Retribution (Score, Soundtrack)[FLAC (tr ...
  • (2012) Usher / Looking 4 Myself (Deluxe Version) (R&B, Soul) [FLAC (tracks+ ...
  • (2011) Mistabishi / Trip (Drum & Bass, Breakbeat) [FLAC (tracks+.cue), loss ...
  • (2006) The Rasmus / Shot (Single) (Alternative Rock) [FLAC (tracks+.cue), l ...
  • (2011) Linkin Park / Iridescent (Alternative Rock) [FLAC(image+.cue), lossl ...
  • (2011) Stargazery / Eye On The Sky (Heavy Metal) [FLAC (image+.cue), lossle ...
  • (2011) Дельфин / Существо (Alternative|Experimental) [FLAC (tracks+.cue), l ...
  • (2011) This Will Destroy You / Tunnel Blanket (Post Rock) [FLAC (tracks+.cu ...
  • (2012) Nightwish / The Crow, The Owl And The Dove (Sympho-Power Metal) [FLA ...
  • (2011) SeeS / The enD (Progressive/Math Metal) [FLAC (tracks+.cue), lossles ...
  • (2012) Bleeding Through / The Great Fire (Symphonic Metalcore/Hardcore) [FL ...
  • (2011) Florence & The Machine / Ceremonials (Deluxe Edition) (Indie/Alterna ...
  • (2012) Our Lady Peace / Curve (Alternative/Rock) [FLAC (tracks+.cue), lossl ...
  • (2012) KoRn feat. Skrillex / Chaos Lives In Everything (UK Promo) (Nu-metal ...
  • (2011) The Soulless / Isolated (Melodic Death Metal/Metalcore) [FLAC (track ...
  • (2011) Phinehas / Thegodmachine (Metalcore) [FLAC (tracks+.cue), lossless]
  • (2012) For Today / Immortal (Metalcore, Hardcore, Christian) [FLAC (tracks+ ...
  • Информация
    Посетители, находящиеся в группе Гости, не могут оставлять комментарии к данной публикации.