вход на сайт

Имя пользователя :
Пароль :

Восстановление пароля Регистрация
(2010) Punish My Heaven / First Punishment (Melodic Death Metal, Metalcore) [FLAC (image+.cue), lossless]
Рейтинг:
(голосов: 1)



[img]{THEME}/images/logopost.png[/img]





Альбом: First Punishment
Тип альбома: Студийный
Год выпуска: 2010
Страна: Германия
Жанр: Melodic Death Metal, Metalcore
Формат: FLAC (image+.cue)
Битрейт: lossless
Log-файл: Присутствует
Продолжительность: 00:49:29


01. Becoming the Legend(4:56)
02. When Light Turns Into Darkness(4:22)
03. The Earth Stands Still(4:42)
04. Path of the Seraph(3:51)
05. Words of Perception(4:53)
06. Blacklight(4:45)
07. Eulogy(3:36)
08. It Withers(4:46)
09. The Cleansing(5:39)


"Отчет "EAC" ▼TextExact Audio Copy V0.99 prebeta 5 from 4. May 2009

EAC extraction logfile from 12. July 2011, 7:11

Punish my Heaven / First Punishment

Used drive : _NEC DVD_RW ND-3540A Adapter: 0 ID: 0

Read mode : Secure
Utilize accurate stream : Yes
Defeat audio cache : Yes
Make use of C2 pointers : No

Read offset correction : 48
Overread into Lead-In and Lead-Out : No
Fill up missing offset samples with silence : Yes
Delete leading and trailing silent blocks : No
Null samples used in CRC calculations : Yes
Used interface : Native Win32 interface for Win NT & 2000

Used output format : User Defined Encoder
Selected bitrate : 40 kBit/s
Quality : High
Add ID3 tag : No
Command line compressor : C:Program FilesExact Audio CopyFLAC.EXE
Additional command line options : -6 -V %s

TOC of the extracted CD

Track | Start | Length | Start sector | End sector
---------------------------------------------------------
1 | 0:00.00 | 4:55.72 | 0 | 22196
2 | 4:55.72 | 4:21.70 | 22197 | 41841
3 | 9:17.67 | 4:42.04 | 41842 | 62995
4 | 13:59.71 | 3:50.44 | 62996 | 80289
5 | 17:50.40 | 4:52.51 | 80290 | 102240
6 | 22:43.16 | 4:44.43 | 102241 | 123583
7 | 27:27.59 | 3:36.27 | 123584 | 139810
8 | 31:04.11 | 4:45.51 | 139811 | 161236
9 | 35:49.62 | 5:38.63 | 161237 | 186649

Range status and errors

Selected range

Filename E:Punish my Heaven - 2010 - First Punishment {snecy.moole.ru}Punish my Heaven - First Punishment.wav

Peak level 99.7 %
Range quality 100.0 %
Copy CRC 7A3E3B3B
Copy OK

No errors occurred

AccurateRip summary

Track 1 not present in database
Track 2 not present in database
Track 3 not present in database
Track 4 not present in database
Track 5 not present in database
Track 6 not present in database
Tra
0030319dbe533df664877abb7e9d6e9aa838a5ef(2010) Punish My Heaven / First Punishment (Melodic Death Metal, Metalcore) [FLAC (image+.cue), lossless] (2010) Punish My Heaven / First Punishment (Melodic Death Metal, Metalcore) [FLAC (image+.cue), lossless] " />

Аплоадер: Админ, дата: 16-05-2012, 18:58, торрент скачан: 359 раз

Понравилась раздача? Посмотрите эти:
  • (2013) Мумий Тролль / SOS Матросу - 2013, (Rock) [FLAC (image+.cue), lossle ...
  • (2013) Depeche Mode - Heaven (CD Maxi-Single) (Synthpop) [FLAC (image+.cue) ...
  • (1989) Kaoma / Lambada (lambada / latin / ethnic) [FLAC (image+.cue), lossl ...
  • (2010) Ассаи / Лифт (Rap) [FLAC(image+.cue), lossless]
  • (2011) Scar Symmetry / The Unseen Empire (Melodic Death Metal) [FLAC (image ...
  • (2011) Sepultura / Kairos (Thrash Metal) [Flac(image+.cue)lossless]
  • (2012) Linkin Park / Burn It Down (Alternative Rock) (Single) [FLAC (image+ ...
  • (2012) Kreator / Phantom Antichrist (Thrash Metal) [FLAC (image+.cue), loss ...
  • (Дискография, 1987-1999) Obliveon (Technical Thrash Metal) [FLAC (image+.cu ...
  • (2011) VA / Танцевальный Рай 27 (Pop) [FLAC (image+.cue), lossless]
  • (2011) Linkin Park / Iridescent (Alternative Rock) [FLAC(image+.cue), lossl ...
  • (2011) Stargazery / Eye On The Sky (Heavy Metal) [FLAC (image+.cue), lossle ...
  • (2011) JORN / Live In Black (Heavy/Progressive Metal ) [FLAC (image+.cue), ...
  • (2011) Rammstein / Mein Land (Neue Deutsche Harte, Industrial, Tanz-Metal) ...
  • (2011) Слот / Break The Code (Alternative Metal) [FLAC (image+.cue)lossless ...
  • (2011) Adriano Celentano / Facciamo Finta Che Sia Vero (POP) [FLAC (image+. ...
  • (2011) Сурганова & Оркестр / Увидимся скоро (Rock) [FLAC (image+.cue), loss ...
  • (2011) Metallica / Beyond Magnetic (Thrash Metal) [FLAC (image+.cue), lossl ...
  • (2012) Adrenaline Mob / Omerta (Heavy Metal/Progressive/Nu-Metal) [FLAC (im ...
  • (2012) Crippled Black Phoenix / (Mankind) The Crafty Ape (Alternative/Indie ...
  • (2012) Fox / 2012 (Melodic Hard Rock) [FLAC (image +.cue), lossless]
  • (2009) Exivious (Ex. Cynic) / Exivious (Progressive Metal/Death Metal) [FLA ...
  • (2010) Татьяна Буланова / Романсы (Pop) [FLAC (image+.cue), lossless]
  • (2011) The Soulless / Isolated (Melodic Death Metal/Metalcore) [FLAC (track ...
  • (2011) Lou Reed & Metallica / Lulu (Heavy Metal, Hard Rock) [FLAC (image+.c ...
  • Информация
    Посетители, находящиеся в группе Гости, не могут оставлять комментарии к данной публикации.