вход на сайт

Имя пользователя :
Пароль :

Восстановление пароля Регистрация
(2012) Game Over / For Humanity (Thrash Metal) [FLAC (image+.cue), lossless]
Рейтинг:
(голосов: 1)



[img]{THEME}/images/logopost.png[/img]





Альбом: For Humanity
Тип альбома: Студийный
Год выпуска: 2012
Страна: Италия
Жанр: Thrash Metal
Формат: FLAC (image+.cue)
Битрейт: lossless
Log-файл: Присутствует
Продолжительность: 00:35:34


01. Abyss of a Needle(4:17)
02. Dawn of the Dead(3:54)
03. Mountains of Madness(3:50)
04. War of Nations(3:45)
05. Overgrill (El Grillador loco)(4:34)
06. N.S.A.(0:25)
07. Bleeding Green(3:57)
08. Another Dose of Thrash(3:12)
09. Evil Clutch(4:26)
10. Tupa Tupa or Die(3:13)


"Отчет "EAC" ▼TextExact Audio Copy V1.0 beta 1 from 15. November 2010

EAC extraction logfile from 4. February 2012, 19:06

GAME OVER / For Humanity

Used drive : Optiarc DVD RW AD-7203A Adapter: 0 ID: 1

Read mode : Secure
Utilize accurate stream : Yes
Defeat audio cache : Yes
Make use of C2 pointers : No

Read offset correction : 48
Overread into Lead-In and Lead-Out : No
Fill up missing offset samples with silence : Yes
Delete leading and trailing silent blocks : No
Null samples used in CRC calculations : Yes
Used interface : Native Win32 interface for Win NT & 2000

Used output format : User Defined Encoder
Selected bitrate : 1024 kBit/s
Quality : High
Add ID3 tag : Yes
Command line compressor : C:Program Files (x86)Exact Audio Copy 1.0bFLACFLAC.EXE
Additional command line options : -6 -V -T "ARTIST=%a" -T "TITLE=%t" -T "ALBUM=%g" -T "DATE=%y" -T "TRACKNUMBER=%n" -T "GENRE=%m" -T "COMMENT=%e" %j--picture="%i"%j %s -o %d

TOC of the extracted CD

Track | Start | Length | Start sector | End sector
---------------------------------------------------------
1 | 0:00.00 | 4:16.55 | 0 | 19254
2 | 4:16.55 | 3:54.19 | 19255 | 36823
3 | 8:10.74 | 3:50.37 | 36824 | 54110
4 | 12:01.36 | 3:45.11 | 54111 | 70996
5 | 15:46.47 | 4:34.29 | 70997 | 91575
6 | 20:21.01 | 0:24.46 | 91576 | 93421
7 | 20:45.47 | 3:57.24 | 93422 | 111220
8 | 24:42.71 | 3:11.57 | 111221 | 125602
9 | 27:54.53 | 4:25.70 | 125603 | 145547
10 | 32:20.48 | 3:13.04 | 145548 | 160026

Range status and errors

Selected range

Filename H:[email protected] OVER - For Humanity 2012GAME OVER - For Humanity.wav

Peak level 100.0 %
Extraction speed 0.3 X
Range quality 100.0 %
Test CRC C6BECF7
99608f5dfb3b59a1c7918d86f781958cc75a5c38(2012) Game Over / For Humanity (Thrash Metal) [FLAC (image+.cue), lossless] (2012) Game Over / For Humanity (Thrash Metal) [FLAC (image+.cue), lossless] " />

Аплоадер: Админ, дата: 15-05-2012, 17:40, торрент скачан: 359 раз

Понравилась раздача? Посмотрите эти:
  • (2013) Buddy Guy / Rhythm & Blues (2CD) (Blues) [FLAC (image+.cue), Lossles ...
  • (2013) Paul McCartney / New (Deluxe Edition) (Rock) [FLAC (image,+.cue), lo ...
  • (2010) Zaz / Zaz (Nu jazz, Chanson, Soul) [FLAC (tracks+.cue), lossless]
  • (2011) The Prodigy / Worlds On Fire (Big Beat, Rave) [FLAC (image+.cue), lo ...
  • (Дискография, 1988-2011) Kingdom Come (Hard&Heavy,Glam Metal) [FLAC (image+ ...
  • (2011) B.B. King / Icon (Blues) [FLAC (tracks+.cue), lossless]
  • (2012) Pantera / Vulgar Display Of Power (20th Anniversary Edition 2012) (A ...
  • (2012) Madonna / Superstar (Pop) [FLAC (image+.cue), lossless]
  • (2011) Linkin Park / Iridescent (Alternative Rock) [FLAC(image+.cue), lossl ...
  • (2011) Stargazery / Eye On The Sky (Heavy Metal) [FLAC (image+.cue), lossle ...
  • (2011) Rammstein / Mein Land (Neue Deutsche Harte, Industrial, Tanz-Metal) ...
  • (2011) Revocation / Chaos of Forms (Death Metal/Thrash) [FLAC (tracks+.cue) ...
  • (2011) Ленинград / Хна (Rock) [FLAC (tracks+.cue), lossless]
  • (2011) SeeS / The enD (Progressive/Math Metal) [FLAC (tracks+.cue), lossles ...
  • (2012) Anneke van Giersbergen / Everything Is Changing (Alternative Rock/Fe ...
  • (2011) Volumes / Via (Progressive Metalcore/Math Metal) [FLAC (image+.cue), ...
  • (2012) Bleeding Through / The Great Fire (Symphonic Metalcore/Hardcore) [FL ...
  • (2009) Exivious (Ex. Cynic) / Exivious (Progressive Metal/Death Metal) [FLA ...
  • (2012) Soulfly / Enslaved [Deluxe Edition] (Groove Metal/Thrash Metal) [FLA ...
  • (2012) KoRn feat. Skrillex / Chaos Lives In Everything (UK Promo) (Nu-metal ...
  • (2012) Nine Lashes / World We View (Alt.Rock/Alt.Metal/Christian) [FLAC (tr ...
  • (2011) Phinehas / Thegodmachine (Metalcore) [FLAC (tracks+.cue), lossless]
  • (2011) Ink Stained Promises / Relations. (Metalcore, Hardcore) [FLAC (track ...
  • (2011) Skindred / Union Black (Alternative Metal, Ragga-Metal) [FLAC (track ...
  • (2012) For Today / Immortal (Metalcore, Hardcore, Christian) [FLAC (tracks+ ...
  • Информация
    Посетители, находящиеся в группе Гости, не могут оставлять комментарии к данной публикации.