вход на сайт

Имя пользователя :
Пароль :

Восстановление пароля Регистрация
(2011) The Soulless / Isolated (Melodic Death Metal/Metalcore) [FLAC (tracks+.cue), lossless]
Рейтинг:
(голосов: 1)



[img]{THEME}/images/logopost.png[/img]





Альбом: Isolated
Тип альбома: Студийный
Год выпуска: 2011
Страна: Великобритания
Жанр: Melodic Death Metal/Metalcore
Формат: FLAC (tracks+.cue)
Битрейт: lossless
Log-файл: Присутствует
Продолжительность: 00:32:59


01. Unaltered (02:53)
02. The Path (03:25)
03. Earthbound (03:51)
04. 13th Morning (01:15)
05. New Perspective (03:45)
06. Clones (03:36)
07. Revelation (03:07)
08. Our Return (02:54)
09. Unite Us (03:52)
10. You Are Nothing To Me (01:05)
11. Without Heart (03:11)


"Отчет "EAC" ▼Text Exact Audio Copy V0.99 prebeta 5 from 4. May 2009
EAC extraction logfile from 7. June 2011, 22:40

The Soulless / Isolated

Used drive : Optiarc DVD RW AD-7170A Adapter: 0 ID: 0

Read mode : Secure
Utilize accurate stream : Yes
Defeat audio cache : Yes
Make use of C2 pointers : No

Read offset correction : 48
Overread into Lead-In and Lead-Out : No
Fill up missing offset samples with silence : Yes
Delete leading and trailing silent blocks : No
Null samples used in CRC calculations : Yes
Used interface : Native Win32 interface for Win NT & 2000
Gap handling : Appended to previous track

Used output format : User Defined Encoder
Selected bitrate : 320 kBit/s
Quality : High
Add ID3 tag : No
Command line compressor : C:Program FilesExact Audio CopyFlacflac.exe
Additional command line options : -V -8 -T "artist=%a" -T "title=%t" -T "album=%g" -T "date=%y" -T "tracknumber=%n" -T "genre=%m" %s

TOC of the extracted CD

Track | Start | Length | Start sector | End sector
---------------------------------------------------------
1 | 0:00.00 | 2:53.68 | 0 | 13042
2 | 2:53.68 | 3:25.17 | 13043 | 28434
3 | 6:19.10 | 3:51.54 | 28435 | 45813
4 | 10:10.64 | 1:15.57 | 45814 | 51495
5 | 11:26.46 | 3:45.09 | 51496 | 68379
6 | 15:11.55 | 3:36.21 | 68380 | 84600
7 | 18:48.01 | 3:07.08 | 84601 | 98633
8 | 21:55.09 | 2:54.55 | 98634 | 111738
9 | 24:49.64 | 3:52.20 | 111739 | 129158
10 | 28:42.09 | 1:05.61 | 129159 | 134094
11 | 29:47.70 | 3:11.58 | 134095 | 148477

Track 1

Filename C:DownloadThe_Soulless_-_Isolated1_-_The_Soulless_-_Unaltere
35e1b58e38dbb3b8a3e14314499ebae04ad3b73e(2011) The Soulless / Isolated (Melodic Death Metal/Metalcore) [FLAC (tracks+.cue), lossless] (2011) The Soulless / Isolated (Melodic Death Metal/Metalcore) [FLAC (tracks+.cue), lossless] " />

Аплоадер: Админ, дата: 15-05-2012, 17:16, торрент скачан: 359 раз

Понравилась раздача? Посмотрите эти:
  • (2013) Love And Death / Between Here & Lost (Nu Metal) [FLAC (tracks+.cue) ...
  • (2010) Zaz / Zaz (Nu jazz, Chanson, Soul) [FLAC (tracks+.cue), lossless]
  • (2011) Adele / 21 (Jazz, Lounge, Easy Listening) [FLAC (tracks + .cue), los ...
  • (2011) Disturbed / The Lost Children (Alternative Metal) [FLAC (tracks+.cue ...
  • (2011) Виктория - победительница / Victorious (OST) [FLAC (tracks+.cue), lo ...
  • (2011) B.B. King / Icon (Blues) [FLAC (tracks+.cue), lossless]
  • (2011) Chris Brown / F.A.M.E. (Deluxe Edition) (R&B) [FLAC (tracks+.cue), l ...
  • (2011) Ляпис Трубецкой / Веселые картинки (Rock) [FLAC (tracks+.cue), lossl ...
  • (2011) Revocation / Chaos of Forms (Death Metal/Thrash) [FLAC (tracks+.cue) ...
  • (2011) Дельфин / Существо (Alternative|Experimental) [FLAC (tracks+.cue), l ...
  • (2011) Ленинград / Хна (Rock) [FLAC (tracks+.cue), lossless]
  • (2011) SeeS / The enD (Progressive/Math Metal) [FLAC (tracks+.cue), lossles ...
  • (2011) Downhere / On The Altar Of Love (Alternative Rock/Christian Rock) [F ...
  • (2011) Volumes / Via (Progressive Metalcore/Math Metal) [FLAC (image+.cue), ...
  • (2011) Vildhjarta / Måsstaden (Progressive Math Metal/Djent) [FLAC (tracks+ ...
  • (2012) Bleeding Through / The Great Fire (Symphonic Metalcore/Hardcore) [FL ...
  • (2011) Terra Tenebrosa / The Tunnels (Atmospheric Sludge Post-Metal/Psyched ...
  • (2009) Exivious (Ex. Cynic) / Exivious (Progressive Metal/Death Metal) [FLA ...
  • (2011) The Browning / Burn This World (Deathcore/Electronic) [FLAC (tracks+ ...
  • (2012) KoRn feat. Skrillex / Chaos Lives In Everything (UK Promo) (Nu-metal ...
  • (2012) Nine Lashes / World We View (Alt.Rock/Alt.Metal/Christian) [FLAC (tr ...
  • (2011) Phinehas / Thegodmachine (Metalcore) [FLAC (tracks+.cue), lossless]
  • (2011) Ink Stained Promises / Relations. (Metalcore, Hardcore) [FLAC (track ...
  • (2011) Skindred / Union Black (Alternative Metal, Ragga-Metal) [FLAC (track ...
  • (2012) For Today / Immortal (Metalcore, Hardcore, Christian) [FLAC (tracks+ ...
  • Информация
    Посетители, находящиеся в группе Гости, не могут оставлять комментарии к данной публикации.