вход на сайт

Имя пользователя :
Пароль :

Восстановление пароля Регистрация
(2011) Paradise Lost / Draconian Times MMXI (Limited Edition) (Gothic Rock, Metal) [FLAC (image+.cue), lossless]
Рейтинг:
(голосов: 1)



[img]{THEME}/images/logopost.png[/img]





Альбом: Draconian Times MMXI (Limited Edition)
Тип альбома: Live album
Год выпуска: 2011
Страна: United Kingdom (Halifax, England)
Жанр: Gothic Rock, Metal
Формат: FLAC (image+.cue)
Битрейт: lossless
Log-файл: Присутствует
Продолжительность: 01:05:45



01. Enchantment (07:47)
02. Hallowed Land (05:35)
03. The Last Time (03:54)
04. Forever Failure (04:40)
05. Once Solemn (03:29)
06. Shadowkings (05:18)
07. Elusive Cure (03:28)
08. Yearn for Change (04:53)
09. Shades of God (04:11)
10. Hands of Reason (04:30)
11. I See Your Face (03:37)
12. Jaded (04:52)
13. Faith Divides Us - Death Unites Us (04:26)
14. The Rise of Denial (04:59)


Отчет "EAC" ▼Text
Exact Audio Copy V0.99 prebeta 5 from 4. May 2009

Отчёт EAC об извлечении, выполненном 30. ноября 2011, 22:00

Paradise Lost / Draconian Times MMXI

Дисковод: TSSTcorpCDDVDW TS-L633A Adapter: 0 ID: 1

Режим чтения : Достоверность
Использование точного потока : Да
Отключение кэша аудио : Да
Использование указателей C2 : Нет

Коррекция смещения при чтении : 6
Способность читать области Lead-in и Lead-out : Нет
Заполнение пропущенных сэмплов тишиной : Да
Удаление блоков с тишиной в начале и конце : Нет
При вычислениях CRC использовались нулевые сэмплы : Да
Интерфейс : Встроенный Win32-интерфейс для Win NT/2000

Выходной формат : Внутренние WAV-операции
Формат сэмплов : 44.100 Гц; 16 бит; стерео


TOC извлечённого CD

Трек | Старт | Длительность | Начальный сектор | Конечный сектор
---------------------------------------------------------------------
1 | 0:00.00 | 7:47.57 | 0 | 35081
2 | 7:47.57 | 5:35.51 | 35082 | 60257
3 | 13:23.33 | 3:54.04 | 60258 | 77811
4 | 17:17.37 | 4:40.23 | 77812 | 98834
5 | 21:57.60 | 3:29.46 | 98835 | 114555
6 | 25:27.31 | 5:18.41 | 114556 | 138446
7 | 30:45.72 | 3:28.55 | 138447 | 154101
8 | 34:14.52 | 4:53.59 | 154102 | 176135
9 | 39:08.36 | 4:11.64 | 176136 | 195024
10 | 43:20.25 | 4:30.08 | 195025 | 215282
11 | 47:50.33 | 3:37.04 |
9357c5ebf00298cf6a96eb8f7dc8eb397a83d34c(2011) Paradise Lost / Draconian Times MMXI (Limited Edition) (Gothic Rock, Metal) [FLAC (image+.cue), lossless] (2011) Paradise Lost / Draconian Times MMXI (Limited Edition) (Gothic Rock, Metal) [FLAC (image+.cue), lossless] " />

Аплоадер: Админ, дата: 5-05-2012, 07:37, торрент скачан: 359 раз

Понравилась раздача? Посмотрите эти:
  • (2000) Lenny Kravitz / Greatest Hits (Rock, Funk) [FLAC (image+.cue), lossl ...
  • (2002) a-ha / Lifelines (Alternative Rock, Synth-pop ) [FLAC (image + .cue ...
  • (2013) Krokus / Dirty Dynamite (Hard Rock) [FLAC (image+.cue), lossless]
  • (Дискография, 1988-2012) Paradise Lost (Doom, Death Metal, Gothic Rock) [MP ...
  • (1994) Joy / Grand Collection (EuroDisco) [FLAC (image+.cue) lossless]
  • (2006) Батырхан Шукенов/ Отан Ана (Pop) [FLAC (image+.cue) lossless]
  • (2011) Within Temptation / The Unforgiving (Symphonic Gothic Metal) [FLAC ( ...
  • (2004) Genesis / Platinum Collection (Art Rock) [FLAC (image+.cue), lossles ...
  • (2011) Blues Cousins / KGB Blues (Blues Rock) [FLAC (image+.cue), lossless] ...
  • (2011) АукцЫон / Юла (Rock) [APE (image+.cue), lossless]
  • ( 2001) Воскресение / Звездная коллекция (Rock) [FLAC (image+.cue) lossless ...
  • (2010) Lara Fabian / The Best of (2CD Limited Edition) (Pop) [Flac(image+.c ...
  • (2011) Paradise Lost / Draconian Times MMXI (Gothic Metal / Doom Metal) [MP ...
  • (2011) Iron Savior / The Landing (Limited Edition) (Power/Heavy Metal) [FL ...
  • (1988) Fausto Papetti / Grand Collection (POP, Jazz) [FLAC (image+.cue), lo ...
  • (1995) Yaki-Da / Pride (Pop, Eurodance) [FLAC (image+.сue), lossless]
  • (2012) Paradise Lost / Tragic Idol (Limited Edition) (Gothic Rock, Metal) [ ...
  • (2000) Парк Горького (Gorky Park) / The Best (Glam Metal/Hard Rock) [FLAC ...
  • (2004) Ex-Сектор Газа / Огненный рай (Punk-Rock) [FLAC (image+.cue), lossle ...
  • (2008) Студия 80 / Придуманный Мир (Pop) [FLAC (image+.cue), lossless]
  • Информация
    Посетители, находящиеся в группе Гости, не могут оставлять комментарии к данной публикации.