вход на сайт

Имя пользователя :
Пароль :

Восстановление пароля Регистрация
(2012) Paradise Lost / Tragic Idol (Limited Edition) (Gothic Rock, Metal) [FLAC (image+.cue), lossless]
Рейтинг:
(голосов: 1)



[img]{THEME}/images/logopost.png[/img]





Альбом: Tragic Idol (Limited Edition)
Тип альбома: Студийный
Год выпуска: 2012
Страна: United Kingdom (Halifax, England)
Жанр: Gothic Rock, Metal
Формат: FLAC (image+.cue)
Битрейт: lossless
Log-файл: Присутствует
Продолжительность: 00:55:02



CD1:
01. Solitary One (04:08)
02. Crucify (04:08)
03. Fear of Impending Hell (05:24)
04. Honesty in Death (04:07)
05. Theories from Another World (05:02)
06. In This We Dwell (03:54)
07. To the Darkness (05:09)
08. Tragic Idol (04:34)
09. Worth Fighting For (04:11)
10. The Glorious End (05:23)
CD2:
01. Ending Through Changes (04:09)
02. Never Take Me Alive (Spear Of Destiny cover version) (04:48)


Отчет "EAC" (CD1) ▼Text
Exact Audio Copy V0.99 prebeta 5 from 4. May 2009

Отчёт EAC об извлечении, выполненном 25. апреля 2012, 21:18

Paradise Lost / Tragic Idol (Limited Edition) CD1

Дисковод: TSSTcorpCD/DVDW TS-L632D Adapter: 1 ID: 0

Режим чтения : Достоверность
Использование точного потока : Да
Отключение кэша аудио : Да
Использование указателей C2 : Нет

Коррекция смещения при чтении : 6
Способность читать области Lead-in и Lead-out : Нет
Заполнение пропущенных сэмплов тишиной : Да
Удаление блоков с тишиной в начале и конце : Нет
При вычислениях CRC использовались нулевые сэмплы : Да
Интерфейс : Встроенный Win32-интерфейс для Win NT/2000

Выходной формат : Внутренние WAV-операции
Формат сэмплов : 44.100 Гц; 16 бит; стерео


TOC извлечённого CD

Трек | Старт | Длительность | Начальный сектор | Конечный сектор
---------------------------------------------------------------------
1 | 0:00.00 | 4:08.22 | 0 | 18621
2 | 4:08.22 | 4:08.00 | 18622 | 37221
3 | 8:16.22 | 5:24.72 | 37222 | 61593
4 | 13:41.19 | 4:07.18 | 61594 | 80136
5 | 17:48.37 | 5:02.17 | 80137 | 102803
6 | 22:50.54 | 3:54.31 | 102804 | 120384
7 | 26:45.10 | 5:09.74 | 120385 | 143633
8 | 31:55.09 | 4:34.49 | 143634 | 164232
9 | 36:29.58 | 4:11.68 | 164233 | 183125
10 | 40:41.51 | 5:23.68 | 183126 | 207418


Характеристики диапазона извлечения и с
ceaf048ecfd83b0f1dfe013dbdf9abf1ca4dc2ae(2012) Paradise Lost / Tragic Idol (Limited Edition) (Gothic Rock, Metal) [FLAC (image+.cue), lossless] (2012) Paradise Lost / Tragic Idol (Limited Edition) (Gothic Rock, Metal) [FLAC (image+.cue), lossless] " />

Аплоадер: Админ, дата: 5-05-2012, 07:10, торрент скачан: 359 раз

Понравилась раздача? Посмотрите эти:
  • (2000) Lenny Kravitz / Greatest Hits (Rock, Funk) [FLAC (image+.cue), lossl ...
  • (2002) a-ha / Lifelines (Alternative Rock, Synth-pop ) [FLAC (image + .cue ...
  • (2013) Paradise Lost / Tragic Illusion 25 (The Rarities) (Gothic Metal / Do ...
  • (2012) Григорий Лепс / Полный вперёд (Шансон) [FLAC (image+.cue), Lossless ...
  • (1994) Joy / Grand Collection (EuroDisco) [FLAC (image+.cue) lossless]
  • (2006) Батырхан Шукенов/ Отан Ана (Pop) [FLAC (image+.cue) lossless]
  • (2011) Within Temptation / The Unforgiving (Symphonic Gothic Metal) [FLAC ( ...
  • (2004) Genesis / Platinum Collection (Art Rock) [FLAC (image+.cue), lossles ...
  • (2011) Blues Cousins / KGB Blues (Blues Rock) [FLAC (image+.cue), lossless] ...
  • (2011) АукцЫон / Юла (Rock) [APE (image+.cue), lossless]
  • (Дискография, 1986 - 1999) Crimson Glory (Progressive Heavy Metal) [FLAC (i ...
  • ( 2001) Воскресение / Звездная коллекция (Rock) [FLAC (image+.cue) lossless ...
  • (2010) Lara Fabian / The Best of (2CD Limited Edition) (Pop) [Flac(image+.c ...
  • (2011) Iron Savior / The Landing (Limited Edition) (Power/Heavy Metal) [FL ...
  • (2012) Paradise Lost / Tragic Idol (Japanese Edition) (Gothic Metal, Doom M ...
  • (1995) Yaki-Da / Pride (Pop, Eurodance) [FLAC (image+.сue), lossless]
  • (2011) Paradise Lost / Draconian Times MMXI (Limited Edition) (Gothic Rock, ...
  • (2000) Парк Горького (Gorky Park) / The Best (Glam Metal/Hard Rock) [FLAC ...
  • (2004) Ex-Сектор Газа / Огненный рай (Punk-Rock) [FLAC (image+.cue), lossle ...
  • (2008) Студия 80 / Придуманный Мир (Pop) [FLAC (image+.cue), lossless]
  • Информация
    Посетители, находящиеся в группе Гости, не могут оставлять комментарии к данной публикации.