вход на сайт

Имя пользователя :
Пароль :

Восстановление пароля Регистрация
(2012) Nightwish / Imaginaerum (Tour Edition) (Sympho Power Metal) [FLAC (tracks+.cue), lossless]
Рейтинг:
(голосов: 1)



[img]{THEME}/images/logopost.png[/img]



Исполнитель: Nightwish
Альбом: Imaginaerum (Tour Edition)
Страна: Финляндия, Швеция
Тип альбома: Студийный
Год выпуска: 2012
Жанр: Sympho Power Metal
Формат: FLAC (tracks+.cue)
Битрейт: lossless
Лог-файлы: Присутствуют
Продолжительность: 02:23:20

Tреклист:
▼CD1: Original
01. Taikatalvi (02:35)
02. Storytime (05:22)
03. Ghost River (05:28)
04. Slow, Love, Slow (05:50)
05. I Want My Tears Back (05:07)
06. Scaretale (07:32)
07. Arabesque (02:57)
08. Turn Loose The Mermaids (04:20)
09. Rest Calm (07:02)
10. The Crow, The Owl And The Dove (04:10)
11. Last Ride Of The Day (04:32)
12. Song Of Myself (13:37)
1: From A Dusty Bookshelf
2: All That Great Heart Lying Still
3: Piano Black
4: Love
13. Imaginaerum (06:18)

CD2: Orchestral:
01. Taikatalvi (Orchestral) (02:35)
02. Storytime (Orchestral) (05:22)
03. Ghost River (Orchestral) (05:22)
04. Slow, Love, Slow (Orchestral) (05:52)
05. Scaretale (Orchestral) (07:32)
06. Arabesque (Orchestral) (02:57)
07. Turn Loose The Mermaids (Orchestral) (04:19)
08. Rest Calm (Orchestral) (07:02)
09. The Crow, The Owl And The Dove (Orchestral) (04:10)
10. Last Ride Of The Day (Orchestral) (04:32)
11. Song Of Myself (Orchestral) (12:30)
1: From A Dusty Bookshelf
2: All That Great Heart Lying Still
3: Piano Black
4: Love
12. Imaginaerum (Orchestral) (06:17)

Лог создания рипа CD1 ▼TextExact Audio Copy V1.0 beta 3 from 29. August 2011

EAC extraction logfile from 21. April 2012, 20:13

Nightwish / Imaginaerum (Original)

Used drive : ASUS DRW-24B1ST Adapter: 0 ID: 0

Read mode : Secure
Utilize accurate stream : Yes
Defeat audio cache : Yes
Make use of C2 pointers : No

Read offset correction : 6
Overread into Lead-In and Lead-Out : No
Fill up missing offset samples with silence : Yes
Delete leading and trailing silent blocks : No
Null samples used in CRC calculations : Yes
Used interface : Native Win32 interface for Win NT & 2000
Gap handling : Appended to previous track

Used output format : User Defined Encoder
Selected bitrate : 1024 kBit/s
Quality : High
Add ID3 tag : No
Command line compressor : C:Program Files (x86)Exact Audio CopyFlacflac.exe
Additional command line options : -V -8 -T "Genre=%genre%" -T "Artist=%artist%" -T "Title=%title%" -T "Album=%albumtitle%" -T "Date=%year%" -T "Tracknumber=%tracknr%" -T "Comment=%comment%" %source%


TOC of the extracted CD

Track | Start | Length | Start sector | End sector
---------------------------------------------------------
1 | 0:00.00 | 2:35.36 | 0 | 11660
2 | 2:35.36 | 5:22.21 | 11661 | 35831
3 | 7:57.57 | 5:28.11 | 35832 | 60442
4 | 13:25.68 | 5:50.35 | 60443 | 86727 &n
bf2de7944b27c4523f4120fe8804b95929ebf0f9(2012) Nightwish / Imaginaerum (Tour Edition) (Sympho Power Metal) [FLAC (tracks+.cue), lossless] (2012) Nightwish / Imaginaerum (Tour Edition) (Sympho Power Metal) [FLAC (tracks+.cue), lossless] " />

Аплоадер: Админ, дата: 25-04-2012, 02:02, торрент скачан: 359 раз

Понравилась раздача? Посмотрите эти:
  • (2011) Disturbed / The Lost Children (Alternative Metal) [FLAC (tracks+.cue ...
  • (2011) Daughtry / Break the Spell (Deluxe Edition) (Alt. Rock / Modern Rock ...
  • (2012) Yiruma / Stay In Memory (New Age, Instrumental, Neoclassical, Piano) ...
  • (2012) Paul Van Dyk / Evolution (Progressive House, Trance) [FLAC (tracks+. ...
  • (2012, Сборник) VA / Saxophone Golden Best (Jazz, Smooth Jazz) [FLAC (track ...
  • (2012) Tomandandy / Resident Evil: Retribution (Score, Soundtrack)[FLAC (tr ...
  • (2012) The Piano Guys / The Piano Guys (Contemporary Classic, Instrumental, ...
  • (2011) Nightwish / Imaginaerum (Limited Edition) (2CD) (Symphonic Power Met ...
  • (2011) Дельфин / Существо (Alternative|Experimental) [FLAC (tracks+.cue), l ...
  • (2012) Nightwish / The Crow, The Owl And The Dove (Sympho-Power Metal) [FLA ...
  • (2012) Les Friction / Les Friction (Alt. Rock/Neo-Classical/Orchestral) [FL ...
  • (2011) SeeS / The enD (Progressive/Math Metal) [FLAC (tracks+.cue), lossles ...
  • (2012) Bleeding Through / The Great Fire (Symphonic Metalcore/Hardcore) [FL ...
  • (2012) Our Lady Peace / Curve (Alternative/Rock) [FLAC (tracks+.cue), lossl ...
  • (2012) Nightwish / Imaginaerum (Tour Edition) (Sympho Power Metal) [MP3, 32 ...
  • (2012) KoRn feat. Skrillex / Chaos Lives In Everything (UK Promo) (Nu-metal ...
  • (2012) Nine Lashes / World We View (Alt.Rock/Alt.Metal/Christian) [FLAC (tr ...
  • (2011) Phinehas / Thegodmachine (Metalcore) [FLAC (tracks+.cue), lossless]
  • (2012) Nightwish / Imaginaerum (Japanese Edition) (Symphonic Power Metal) [ ...
  • (2012) Nightwish / Imaginaerum. The Score (Symphonic Power Metal, Orchestra ...
  • Информация
    Посетители, находящиеся в группе Гости, не могут оставлять комментарии к данной публикации.