вход на сайт

Имя пользователя :
Пароль :

Восстановление пароля Регистрация
(2011) The Browning / Burn This World (Deathcore/Electronic) [FLAC (tracks+.cue), lossless]
Рейтинг:
(голосов: 1)



[img]{THEME}/images/logopost.png[/img]





Альбом: Burn This World
Тип альбома: Студийный
Год выпуска: 2011
Страна: США
Жанр: Deathcore/Electronic
Формат: FLAC (tracks+.cue)
Битрейт: lossless
Log-файл: Присутствует
Продолжительность: 00:43:08


01. No Escape (01:54)
02. Not Alone (03:31)
03. Bloodlust (04:02)
04. Standing On The Edge (02:42)
05. Burn This World (02:42)
06. Ashamed (03:24)
07. Living Dead (03:40)
08. Forgotten (02:54)
09. Time Will Tell (03:07)
10. Tragedy Of Perfection (03:16)
11. Dominator (03:50)
12. I Choose You (03:10)
13. The Sadist (04:50)


Отчет "EAC" ▼TextExact Audio Copy V1.0 beta 2 from 29. April 2011

EAC extraction logfile from 4. October 2011, 23:45

The Browning / Burn This World

Used drive : PLEXTOR DVDR PX-880SA Adapter: 2 ID: 0

Read mode : Secure
Utilize accurate stream : Yes
Defeat audio cache : Yes
Make use of C2 pointers : No

Read offset correction : 6
Overread into Lead-In and Lead-Out : No
Fill up missing offset samples with silence : Yes
Delete leading and trailing silent blocks : No
Null samples used in CRC calculations : Yes
Used interface : Native Win32 interface for Win NT & 2000
Gap handling : Appended to previous track

Used output format : User Defined Encoder
Selected bitrate : 320 kBit/s
Quality : High
Add ID3 tag : No
Command line compressor : C:Program Files (x86)Exact Audio CopyFlacflac.exe
Additional command line options : -V -8 -T "artist=%artist%" -T "title=%title%" -T "album=%albumtitle%" -T "date=%year%" -T "tracknumber=%tracknr%" -T "genre=%genre%" %source%

TOC of the extracted CD

Track | Start | Length | Start sector | End sector
---------------------------------------------------------
1 | 0:00.00 | 1:54.33 | 0 | 8582
2 | 1:54.33 | 3:31.40 | 8583 | 24447
3 | 5:25.73 | 4:02.61 | 24448 | 42658
4 | 9:28.59 | 2:42.35 | 42659 | 54843
5 | 12:11.19 | 2:42.42 | 54844 | 67035
6 | 14:53.61 | 3:24.19 | 67036 | 82354
7 | 18:18.05 | 3:40.26 | 82355 | 98880
8 | 21:58.31 | 2:54.15 | 98881 | 111945
9 | 24:52.46 | 3:07.60 | 111946 | 126030
10 | 28:00.31 | 3:16.40 | 126031 | 140770
11 | 31:16.71 | 3:50.70 | 140771 | &
b30c3e58fe8d4466f3a7fb646311365b60afc90f(2011) The Browning / Burn This World (Deathcore/Electronic) [FLAC (tracks+.cue), lossless] (2011) The Browning / Burn This World (Deathcore/Electronic) [FLAC (tracks+.cue), lossless] " />

Аплоадер: Админ, дата: 12-04-2012, 10:22, торрент скачан: 359 раз

Понравилась раздача? Посмотрите эти:
  • (2010) Zaz / Zaz (Nu jazz, Chanson, Soul) [FLAC (tracks+.cue), lossless]
  • (2011) Disturbed / The Lost Children (Alternative Metal) [FLAC (tracks+.cue ...
  • (2011) Daughtry / Break the Spell (Deluxe Edition) (Alt. Rock / Modern Rock ...
  • (2009) Dead By Sunrise / Out Of Ashes (Japanese Edition) (Alternative Rock) ...
  • (2012) Katie Melua / Secret Symphony (Jazz Pop, Vocal Jazz) [FLAC (tracks+. ...
  • (2011) B.B. King / Icon (Blues) [FLAC (tracks+.cue), lossless]
  • (2012) Son Of A Bad Man / Heres To The Falling In... (Alt.Rock) [FLAC (trac ...
  • (2012) Tomandandy / Resident Evil: Retribution (Score, Soundtrack)[FLAC (tr ...
  • (2011) The Browning / Burn This World (Deathcore / Electronic) [MP3, 320/CB ...
  • (2011) Scorpions / Comeblack (Hard Rock) [FLAC (tracks+.cue)lossless]
  • (2011) Revocation / Chaos of Forms (Death Metal/Thrash) [FLAC (tracks+.cue) ...
  • (2011) Дельфин / Существо (Alternative|Experimental) [FLAC (tracks+.cue), l ...
  • (2011) Ленинград / Хна (Rock) [FLAC (tracks+.cue), lossless]
  • (2012) Les Friction / Les Friction (Alt. Rock/Neo-Classical/Orchestral) [FL ...
  • (2011) SeeS / The enD (Progressive/Math Metal) [FLAC (tracks+.cue), lossles ...
  • (2012) Our Lady Peace / Curve (Alternative/Rock) [FLAC (tracks+.cue), lossl ...
  • (2012) Nine Lashes / World We View (Alt.Rock/Alt.Metal/Christian) [FLAC (tr ...
  • (2011) Phinehas / Thegodmachine (Metalcore) [FLAC (tracks+.cue), lossless]
  • (2011) Ink Stained Promises / Relations. (Metalcore, Hardcore) [FLAC (track ...
  • (2012) For Today / Immortal (Metalcore, Hardcore, Christian) [FLAC (tracks+ ...
  • Информация
    Посетители, находящиеся в группе Гости, не могут оставлять комментарии к данной публикации.