вход на сайт

Имя пользователя :
Пароль :

Восстановление пароля Регистрация
(2012) Soulfly / Enslaved [Deluxe Edition] (Groove Metal/Thrash Metal) [FLAC (image+.cue), lossless]
Рейтинг:
(голосов: 1)



[img]{THEME}/images/logopost.png[/img]





Альбом: Enslaved
Тип альбома: Студийный
Год выпуска: 2012
Страна: США
Жанр: Groove Metal/Thrash Metal
Формат: FLAC (image+.cue)
Битрейт: lossless
Log-файл: Присутствует
Продолжительность: 01:05:54


01. Resistance(1:53)
02. World scum(5:20)
03. Intervention(3:56)
04. Gladiator(4:59)
05. Legions(4:19)
06. American steel(4:15)
07. Redemption of man by god(5:16)
08. Treachery(5:49)
09. Plata o plomo(4:53)
10. Chains(7:18)
11. Revengeance(5:44)
12. Slave(3:52)
13. Bastard(3:58)
14. Soulfly VIII(4:24)


Отчет "EAC" ▼TextExact Audio Copy V1.0 beta 3 from 29. August 2011

EAC extraction logfile from 16. March 2012, 18:56

Soulfly / Enslaved [Deluxe Edition]

Used drive : HL-DT-STDVD-RAM GH22NP20 Adapter: 0 ID: 0

Read mode : Secure
Utilize accurate stream : Yes
Defeat audio cache : Yes
Make use of C2 pointers : No

Read offset correction : 102
Overread into Lead-In and Lead-Out : No
Fill up missing offset samples with silence : Yes
Delete leading and trailing silent blocks : No
Null samples used in CRC calculations : Yes
Used interface : Native Win32 interface for Win NT & 2000

Used output format : User Defined Encoder
Selected bitrate : 768 kBit/s
Quality : High
Add ID3 tag : Yes
Command line compressor : C:Program FilesExact Audio CopyFlacflac.exe
Additional command line options : -6 -V -T "ARTIST=%artist%" -T "TITLE=%title%" -T "ALBUM=%albumtitle%" -T "DATE=%year%" -T "TRACKNUMBER=%tracknr%" -T "GENRE=%genre%" -T "COMMENT=%comment%" %source% -o %dest%

TOC of the extracted CD

Track | Start | Length | Start sector | End sector
---------------------------------------------------------
1 | 0:00.00 | 1:53.04 | 0 | 8478
2 | 1:53.04 | 5:19.56 | 8479 | 32459
3 | 7:12.60 | 3:55.39 | 32460 | 50123
4 | 11:08.24 | 4:58.66 | 50124 | 72539
5 | 16:07.15 | 4:18.68 | 72540 | 91957
6 | 20:26.08 | 4:14.38 | 91958 | 111045
7 | 24:40.46 | 5:15.60 | 111046 | 134730
8 | 29:56.31 | 5:49.15 | 134731 | 160920
9 | 35:45.46 | 4:52.60 | 160921 | 182880
10 | 40:38.31 | 7:18.15 | 182881 | 215745
11 | 47:56.46 | 5:44.30 | 215746 | 241575
12 | 53:41.01 | 3:51.38 | 241576 | 258938
&nb
e04500958e4d5c077bec90858c59af97d12f5057(2012) Soulfly / Enslaved [Deluxe Edition] (Groove Metal/Thrash Metal) [FLAC (image+.cue), lossless] (2012) Soulfly / Enslaved [Deluxe Edition] (Groove Metal/Thrash Metal) [FLAC (image+.cue), lossless] " />

Аплоадер: Админ, дата: 10-04-2012, 13:22, торрент скачан: 359 раз

Понравилась раздача? Посмотрите эти:
  • (2013) Buddy Guy / Rhythm & Blues (2CD) (Blues) [FLAC (image+.cue), Lossles ...
  • (2013) Paul McCartney / New (Deluxe Edition) (Rock) [FLAC (image,+.cue), lo ...
  • (2013) Hans Zimmer / Человек из стали / Man Of Steel [Deluxe Edition] (2 CD ...
  • (2013) Bon Jovi / What About Now (Deluxe Edition) (Hard Rock) [FLAC (tracks ...
  • (2011) Disturbed / The Lost Children (Alternative Metal) [FLAC (tracks+.cue ...
  • (2011) Daughtry / Break the Spell (Deluxe Edition) (Alt. Rock / Modern Rock ...
  • (2011) Korn (KoЯn) / The Path Of Totality (Special Edition) (Nu Metal | Dub ...
  • (Дискография, 1988-2011) Kingdom Come (Hard&Heavy,Glam Metal) [FLAC (image+ ...
  • (2012) Pantera / Vulgar Display Of Power (20th Anniversary Edition 2012) (A ...
  • (2012) Usher / Looking 4 Myself (Deluxe Version) (R&B, Soul) [FLAC (tracks+ ...
  • (2011) Rammstein / Mein Land (Neue Deutsche Harte, Industrial, Tanz-Metal) ...
  • (2011) Revocation / Chaos of Forms (Death Metal/Thrash) [FLAC (tracks+.cue) ...
  • (2011) Дельфин / Существо (Alternative|Experimental) [FLAC (tracks+.cue), l ...
  • (2012) Les Friction / Les Friction (Alt. Rock/Neo-Classical/Orchestral) [FL ...
  • (2011) SeeS / The enD (Progressive/Math Metal) [FLAC (tracks+.cue), lossles ...
  • (2012) Anneke van Giersbergen / Everything Is Changing (Alternative Rock/Fe ...
  • (2011) Volumes / Via (Progressive Metalcore/Math Metal) [FLAC (image+.cue), ...
  • (2011) Vildhjarta / Måsstaden (Progressive Math Metal/Djent) [FLAC (tracks+ ...
  • (2011) Terra Tenebrosa / The Tunnels (Atmospheric Sludge Post-Metal/Psyched ...
  • (2012) KoRn feat. Skrillex / Chaos Lives In Everything (UK Promo) (Nu-metal ...
  • (2012) Soulfly / Enslaved (Japanese Edition) (Groove Metal, Thrash Metal) [ ...
  • (2012) Nine Lashes / World We View (Alt.Rock/Alt.Metal/Christian) [FLAC (tr ...
  • (2012) Game Over / For Humanity (Thrash Metal) [FLAC (image+.cue), lossless ...
  • (2011) Skindred / Union Black (Alternative Metal, Ragga-Metal) [FLAC (track ...
  • (2012) Schiller / Sonne (3 CD) (Limited Ultra Deluxe Edition) (Ambient/Chil ...
  • Информация
    Посетители, находящиеся в группе Гости, не могут оставлять комментарии к данной публикации.