вход на сайт

Имя пользователя :
Пароль :

Восстановление пароля Регистрация
(2009) Exivious (Ex. Cynic) / Exivious (Progressive Metal/Death Metal) [FLAC (tracks+.cue), lossless]
Рейтинг:
(голосов: 1)



[img]{THEME}/images/logopost.png[/img]





Альбом: Exivious
Тип альбома: Студийный
Год выпуска: 2009
Страна: Нидерланды
Жанр: Progressive Metal/Death Metal
Формат: FLAC (tracks+.cue)
Битрейт: lossless
Log-файл: Присутствует
Продолжительность: 00:46:30


01. Ripple Of A Tear (07:30)
02. Time And Its Changes (04:38)
03. Asurim (05:31)
04. All That Surrounds pt1 (03:38)
05. Waves Of Thought (06:24)
06. The Path (05:45)
07. All That Surrounds pt2 (03:39)
08. Embrace The Unknown (04:44)
09. An Elusive Need (04:38)


Отчет "EAC" ▼TextExact Audio Copy V0.99 prebeta 4 from 23. January 2008

EAC extraction logfile from 6. July 2009, 18:00

Exivious / Exivious

Used drive : Optiarc DVD RW AD-5170A Adapter: 0 ID: 0

Read mode : Secure
Utilize accurate stream : Yes
Defeat audio cache : Yes
Make use of C2 pointers : No

Read offset correction : 48
Overread into Lead-In and Lead-Out : No
Fill up missing offset samples with silence : Yes
Delete leading and trailing silent blocks : No
Null samples used in CRC calculations : Yes
Used interface : Native Win32 interface for Win NT & 2000
Gap handling : Appended to previous track

Used output format : User Defined Encoder
Selected bitrate : 320 kBit/s
Quality : High
Add ID3 tag : No
Command line compressor : C:Program FilesExact Audio CopyFLACFLAC.EXE
Additional command line options : -V -8 -T "artist=%a" -T "title=%t" -T "album=%g" -T "date=%y" -T "tracknumber=%n" -T "genre=%m" %s

TOC of the extracted CD

Track | Start | Length | Start sector | End sector
---------------------------------------------------------
1 | 0:00.00 | 7:30.12 | 0 | 33761
2 | 7:30.12 | 4:38.65 | 33762 | 54676
3 | 12:09.02 | 5:31.13 | 54677 | 79514
4 | 17:40.15 | 3:38.21 | 79515 | 95885
5 | 21:18.36 | 6:24.35 | 95886 | 124720
6 | 27:42.71 | 5:45.19 | 124721 | 150614
7 | 33:28.15 | 3:39.15 | 150615 | 167054
8 | 37:07.30 | 4:44.20 | 167055 | 188374
9 | 41:51.50 | 4:38.59 | 188375 | 209283

Track 1

Filename K:[ Torrents ]ExiviousExivious - Exivious (2009) [flac]1 - Ripple Of A Tear.wav

Pre-gap length 0:00:02.00

Peak level 99.8 %
Track quality 100.0 %
Test CRC 40A149EB
Copy CRC 40A149EB
Accurately ripped (conf
33ef8ff9ed268591daee8014b29aec84941cd007(2009) Exivious (Ex. Cynic) / Exivious (Progressive Metal/Death Metal) [FLAC (tracks+.cue), lossless] (2009) Exivious (Ex. Cynic) / Exivious (Progressive Metal/Death Metal) [FLAC (tracks+.cue), lossless] " />

Аплоадер: Админ, дата: 10-04-2012, 12:54, торрент скачан: 359 раз

Понравилась раздача? Посмотрите эти:
  • (2013) Love And Death / Between Here & Lost (Nu Metal) [FLAC (tracks+.cue) ...
  • (2010) Zaz / Zaz (Nu jazz, Chanson, Soul) [FLAC (tracks+.cue), lossless]
  • (2011) Disturbed / The Lost Children (Alternative Metal) [FLAC (tracks+.cue ...
  • (2011) Korn (KoЯn) / The Path Of Totality (Special Edition) (Nu Metal | Dub ...
  • (2002) PPK (ППК) / ReLoad. Russian Trance (Trance) [FLAC (tracks+cue), loss ...
  • (2010) Ravenna / Debrief (Alt. Rock / Christian Rock / Indie) [FLAC (tracks ...
  • (2011) B.B. King / Icon (Blues) [FLAC (tracks+.cue), lossless]
  • (2006) The Rasmus / Shot (Single) (Alternative Rock) [FLAC (tracks+.cue), l ...
  • (2011) Linkin Park / Iridescent (Alternative Rock) [FLAC(image+.cue), lossl ...
  • (2011) Stargazery / Eye On The Sky (Heavy Metal) [FLAC (image+.cue), lossle ...
  • (2011) Rammstein / Mein Land (Neue Deutsche Harte, Industrial, Tanz-Metal) ...
  • (2011) Revocation / Chaos of Forms (Death Metal/Thrash) [FLAC (tracks+.cue) ...
  • (2011) Ленинград / Хна (Rock) [FLAC (tracks+.cue), lossless]
  • (2012) Nightwish / The Crow, The Owl And The Dove (Sympho-Power Metal) [FLA ...
  • (2011) SeeS / The enD (Progressive/Math Metal) [FLAC (tracks+.cue), lossles ...
  • (2011) Volumes / Via (Progressive Metalcore/Math Metal) [FLAC (image+.cue), ...
  • (2011) Vildhjarta / Måsstaden (Progressive Math Metal/Djent) [FLAC (tracks+ ...
  • (2011) Terra Tenebrosa / The Tunnels (Atmospheric Sludge Post-Metal/Psyched ...
  • (2012) KoRn feat. Skrillex / Chaos Lives In Everything (UK Promo) (Nu-metal ...
  • (2011) The Soulless / Isolated (Melodic Death Metal/Metalcore) [FLAC (track ...
  • (2012) Nine Lashes / World We View (Alt.Rock/Alt.Metal/Christian) [FLAC (tr ...
  • (2012) Game Over / For Humanity (Thrash Metal) [FLAC (image+.cue), lossless ...
  • (2011) Phinehas / Thegodmachine (Metalcore) [FLAC (tracks+.cue), lossless]
  • (2011) Ink Stained Promises / Relations. (Metalcore, Hardcore) [FLAC (track ...
  • (2011) Skindred / Union Black (Alternative Metal, Ragga-Metal) [FLAC (track ...
  • Информация
    Посетители, находящиеся в группе Гости, не могут оставлять комментарии к данной публикации.