вход на сайт

Имя пользователя :
Пароль :

Восстановление пароля Регистрация
(2011) Terra Tenebrosa / The Tunnels (Atmospheric Sludge Post-Metal/Psychedelic/Experimental/Drone) [FLAC (tracks+.cue), lossless]
Рейтинг:
(голосов: 1)



[img]{THEME}/images/logopost.png[/img]





Альбом: The Tunnels
Тип альбома: Студийный
Год выпуска: 2011
Страна: Швеция
Жанр: Atmospheric Sludge Post-Metal/Psychedelic/Experimental/Drone
Формат: FLAC (tracks+.cue)
Битрейт: lossless
Log-файл: Присутствует
Продолжительность: 00:47:00


01. The Teranbos Prayer (06:07)
02. Probing The Abyss (06:03)
03. The Mourning Stars (10:09)
04. The Arc Of Descent (07:54)
05. Guiding The Mist / Terraforming (07:30)
06. Through The Eyes Of The Maninkari (05:20)
07. The Tunnels (03:53)


Отчет "EAC" ▼TextExact Audio Copy V1.0 beta 3 from 29. August 2011

EAC extraction logfile from 28. September 2011, 13:45

Terra Tenebrosa / The Tunnels

Used drive : TSSTcorpCDDVDW SE-S084F Adapter: 3 ID: 0

Read mode : Secure
Utilize accurate stream : Yes
Defeat audio cache : Yes
Make use of C2 pointers : No

Read offset correction : 6
Overread into Lead-In and Lead-Out : No
Fill up missing offset samples with silence : Yes
Delete leading and trailing silent blocks : No
Null samples used in CRC calculations : Yes
Used interface : Native Win32 interface for Win NT & 2000
Gap handling : Appended to previous track

Used output format : User Defined Encoder
Selected bitrate : 1024 kBit/s
Quality : High
Add ID3 tag : No
Command line compressor : C:Program FilesExact Audio CopyFlacflac.exe
Additional command line options : -8 -V -T "ARTIST=%artist%" -T "TITLE=%title%" -T "ALBUM=%albumtitle%" -T "DATE=%year%" -T "TRACKNUMBER=%tracknr%" -T "GENRE=%genre%" -T "PERFORMER=%albuminterpret%" -T "COMPOSER=%composer%" %haslyrics%--tag-from-file=LYRICS="%lyricsfile%"%haslyrics% -T "ALBUMARTIST=%albumartist%" -T "ALBUM ARTIST=%albumartist%" -T "DISCNUMBER=%cdnumber%" -T "TOTALDISCS=%totalcds%" -T "TOTALTRACKS=%numtracks%" -T "COMMENT=%comment%" %source% -o %dest%

TOC of the extracted CD

Track | Start | Length | Start sector | End sector
---------------------------------------------------------
1 | 0:00.00 | 6:07.73 | 0 | 27597
2 | 6:07.73 | 6:03.69 | 27598 | 54891
3 | 12:11.67 | 10:09.60 | 54892 | 100626
4 | 22:21.52 | 7:54.59 | 100627 | 136235
5 | 30:16.36 | 7:30.26 | 136236 | 170011
6 | 37:46.62 | 5:20.52 | 170012 | 194063
7 | 43:07.39 | 3:53.03 | 194064 | 211541

Track 1

Filename C:EACTerra Tenebrosa - The Tunnels (2011)1 - The Teranbos Prayer.wav

Pre-gap length 0:00:02.00
&n
ddc2b1a08935bb3171f2c99b03f5a79b9fd3c797(2011) Terra Tenebrosa / The Tunnels (Atmospheric Sludge Post-Metal/Psychedelic/Experimental/Drone) [FLAC (tracks+.cue), lossless] (2011) Terra Tenebrosa / The Tunnels (Atmospheric Sludge Post-Metal/Psychedelic/Experimental/Drone) [FLAC (tracks+.cue), lossless] " />

Аплоадер: Админ, дата: 6-04-2012, 14:03, торрент скачан: 359 раз

Понравилась раздача? Посмотрите эти:
  • (2013) Paul McCartney / New (Deluxe Edition) (Rock) [FLAC (image,+.cue), lo ...
  • (2013) Prodigy & The Alchemist / Albert Einstein (Underground Hip-Hop) [FLA ...
  • (2011) Disturbed / The Lost Children (Alternative Metal) [FLAC (tracks+.cue ...
  • (2011) Korn (KoЯn) / The Path Of Totality (Special Edition) (Nu Metal | Dub ...
  • (2012) Katie Melua / Secret Symphony (Jazz Pop, Vocal Jazz) [FLAC (tracks+. ...
  • (2012) Mark Lanegan Band / Blues Funeral (Alternative Rock/Blues Rock) [FLA ...
  • (2012) Marconi Union / Different Colours (Post Rock, Downtempo, Ambient) [F ...
  • (2008, Сборник) VA / Relax Piano - Yesterday - Trai Tim Mua Thu - Vol.7 (Ne ...
  • (2012) Tomandandy / Resident Evil: Retribution (Score, Soundtrack)[FLAC (tr ...
  • (1996) The Rasmus / Peep (Finnish Version) (Alternative Rock) [FLAC (tracks ...
  • (2012) Usher / Looking 4 Myself (Deluxe Version) (R&B, Soul) [FLAC (tracks+ ...
  • (2011) Mistabishi / Trip (Drum & Bass, Breakbeat) [FLAC (tracks+.cue), loss ...
  • (2011) Дельфин / Существо (Alternative|Experimental) [FLAC (tracks+.cue), l ...
  • (2012) Buckethead / Electric Sea (Experimental/Acoustic/Ambient/Rock) [FLAC ...
  • (2012) Les Friction / Les Friction (Alt. Rock/Neo-Classical/Orchestral) [FL ...
  • (2011) SeeS / The enD (Progressive/Math Metal) [FLAC (tracks+.cue), lossles ...
  • (2012) Bleeding Through / The Great Fire (Symphonic Metalcore/Hardcore) [FL ...
  • (2012) Our Lady Peace / Curve (Alternative/Rock) [FLAC (tracks+.cue), lossl ...
  • (2012) Nine Lashes / World We View (Alt.Rock/Alt.Metal/Christian) [FLAC (tr ...
  • (2012) For Today / Immortal (Metalcore, Hardcore, Christian) [FLAC (tracks+ ...
  • Информация
    Посетители, находящиеся в группе Гости, не могут оставлять комментарии к данной публикации.