вход на сайт

Имя пользователя :
Пароль :

Восстановление пароля Регистрация
(2012) RAGE / 21 (Limited Edition, 2CD) (Heavy Metal/Thrash Metal) [FLAC (image+.сue), lossless]
Рейтинг:
(голосов: 1)



[img]{THEME}/images/logopost.png[/img]





Альбом: 21
Тип альбома: Студийный
Год выпуска: 2012
Страна: Германия
Жанр: Heavy Metal/Thrash Metal
Формат: FLAC (image+.сue)
Битрейт: lossless
Log-файл: Присутствует
Продолжительность: 02:08:19


CD1 - 21: ▼
Продолжительность: 00:58:04
01. House Wins(1:30)
02. Twenty One(6:16)
03. Forever Dead(6:20)
04. Feel My Pain(5:41)
05. Serial Killer(5:46)
06. Psycho Terror(6:57)
07. Destiny(5:15)
08. Death Romantic(5:59)
09. Black And White(5:20)
10. Concrete Wall(3:51)
11. Eternally(5:09)


CD2 - Bonus CD - Live In Tokyo 2010: ▼
Продолжительность: 01:10:15
01. Opening(1:16)
02. The Edge Of Darkness(5:11)
03. Hunter And Prey(5:45)
04. Into The Light(5:42)
05. Drop Dead(5:30)
06. Empty Hollow(8:58)
07. Light Into The Darkness(5:03)
08. Higher Than The Sky(6:20)
09. War Of Worlds(8:19)
10. Carved In Stone(4:37)
11. Soundchaser(5:49)
12. Down(7:45)


Отчет "EAC" (CD1) ▼TextExact Audio Copy V0.99 prebeta 5 from 4. May 2009

EAC extraction logfile from 27. February 2012, 15:34

Rage / 21

Used drive : ATAPI iHAS624 B Adapter: 2 ID: 0

Read mode : Secure
Utilize accurate stream : Yes
Defeat audio cache : Yes
Make use of C2 pointers : No

Read offset correction : 6
Overread into Lead-In and Lead-Out : No
Fill up missing offset samples with silence : Yes
Delete leading and trailing silent blocks : No
Null samples used in CRC calculations : Yes
Used interface : Installed external ASPI interface

Used output format : User Defined Encoder
Selected bitrate : 40 kBit/s
Quality : High
Add ID3 tag : No
Command line compressor : C:Program FilesExact Audio CopyFlacflac.exe
Additional command line options : -6 -V %s

TOC of the extracted CD

Track | Start | Length | Start sector | End sector
---------------------------------------------------------
1 | 0:00.00 | 1:30.15 | 0 | 6764
2 | 1:30.15 | 6:16.16 | 6765 | 34980
3 | 7:46.31 | 6:20.28 | 34981 | 63508
4 | 14:06.59 | 5:40.42 | 63509 | 89050
5 | 19:47.26 | 5:45.46 | 89051 | 114971
6 | 25:32.72 | 6:57.04 | 114972 | 146250
7 | 32:30.01 | 5:15.33 | 146251 | 169908
8 | 37:45.34 | 5:59.11 | 169909 | 196844
9 | 43:44.45 | 5:19.63 | 196845 | 220832
10 | 49:04.33 | 3:50.70 | 220833 | 238152
11 | 52:55.28 | 5:08.70 | 238153 | 261322
12 | 60:
8a32a53b79ce9b8fad7f68487adb3dcba76fa5e6(2012) RAGE / 21 (Limited Edition, 2CD) (Heavy Metal/Thrash Metal) [FLAC (image+.сue), lossless] (2012) RAGE / 21 (Limited Edition, 2CD) (Heavy Metal/Thrash Metal) [FLAC (image+.сue), lossless] " />

Аплоадер: Админ, дата: 25-03-2012, 00:17, торрент скачан: 359 раз

Понравилась раздача? Посмотрите эти:
  • (2010) Deftones / Diamond Eyes (Nu metal / Alternative) [FLAC, (tracks+ cu ...
  • (2010) Сергей Трофимов (Трофим) / Всё не важно (Шансон) [FLAC(image+.cue), ...
  • (2010) Ассаи / Лифт (Rap) [FLAC(image+.cue), lossless]
  • (2010) Tarja Turunen / What Lies Beneath (Limited Edition) (Symphonic Metal ...
  • (2011) Scar Symmetry / The Unseen Empire (Melodic Death Metal) [FLAC (image ...
  • (2011) Sepultura / Kairos (Thrash Metal) [Flac(image+.cue)lossless]
  • (Дискография, 1988-2011) Kingdom Come (Hard&Heavy,Glam Metal) [FLAC (image+ ...
  • (2012) Axel Rudi Pell / Circle Of The Oath (Limited Edition Digipack) (Melo ...
  • (2012) Moonspell / Alpha Noir - Omega White (Limited Edition) (Gothic, Extr ...
  • (2012) Kreator / Phantom Antichrist (Thrash Metal) [FLAC (image+.cue), loss ...
  • (2012) Pantera / Vulgar Display Of Power (20th Anniversary Edition 2012) (A ...
  • (2008) Scars on Broadway / Scars on Broadway (Japan Edition) (Alt.Metal/Exp ...
  • (2011) Stargazery / Eye On The Sky (Heavy Metal) [FLAC (image+.cue), lossle ...
  • (2011) JORN / Live In Black (Heavy/Progressive Metal ) [FLAC (image+.cue), ...
  • (2011) Слот / F5 (Alternative Metal) [FLAC (image+.cue)lossless]
  • (2011) Слот / Break The Code (Alternative Metal) [FLAC (image+.cue)lossless ...
  • (2011) Revocation / Chaos of Forms (Death Metal/Thrash) [FLAC (tracks+.cue) ...
  • (2011) Metallica / Beyond Magnetic (Thrash Metal) [FLAC (image+.cue), lossl ...
  • (2011) Volumes / Via (Progressive Metalcore/Math Metal) [FLAC (image+.cue), ...
  • (2012) Adrenaline Mob / Omerta (Heavy Metal/Progressive/Nu-Metal) [FLAC (im ...
  • (2009) Exivious (Ex. Cynic) / Exivious (Progressive Metal/Death Metal) [FLA ...
  • (2012) Soulfly / Enslaved [Deluxe Edition] (Groove Metal/Thrash Metal) [FLA ...
  • (2012) Game Over / For Humanity (Thrash Metal) [FLAC (image+.cue), lossless ...
  • (2010) Punish My Heaven / First Punishment (Melodic Death Metal, Metalcore) ...
  • (2011) Skindred / Union Black (Alternative Metal, Ragga-Metal) [FLAC (track ...
  • Информация
    Посетители, находящиеся в группе Гости, не могут оставлять комментарии к данной публикации.