вход на сайт

Имя пользователя :
Пароль :

Восстановление пароля Регистрация
(2012) Bleeding Through / The Great Fire (Symphonic Metalcore/Hardcore) [FLAC (tracks+.cue), lossless]
Рейтинг:
(голосов: 1)



[img]{THEME}/images/logopost.png[/img]





Альбом: The Great Fire
Тип альбома: Cтудийный
Год выпуска: 2012
Страна: США
Жанр: Symphonic Metalcore/Hardcore
Формат: FLAC (tracks+.cue)
Битрейт: lossless
Log-файл: Присутствует
Продолжительность: 00:39:13


01. The March (01:44)
02. Faith In Fire (01:54)
03. Goodbye To Death (02:33)
04. Final Hours (03:56)
05. Starving Vultures (02:44)
06. Everything You Love Is Gone (01:49)
07. Walking Dead (04:05)
08. The Devil And Self Doubt (03:02)
09. Step Back In Line (02:47)
10. Trail Of Seclusion (03:41)
11. Deaf Ears (02:54)
12. One By One (01:38)
13. Entrenched (03:42)
14. Back To Life (02:38)

Отчет "EAC" ▼TextExact Audio Copy V1.0 beta 3 from 29. August 2011

EAC extraction logfile from 2. March 2012, 14:40

Bleeding Through / THe Great Fire

Used drive : Optiarc DVD RW AD-7173S Adapter: 2 ID: 0

Read mode : Secure
Utilize accurate stream : Yes
Defeat audio cache : Yes
Make use of C2 pointers : No

Read offset correction : 48
Overread into Lead-In and Lead-Out : No
Fill up missing offset samples with silence : Yes
Delete leading and trailing silent blocks : No
Null samples used in CRC calculations : Yes
Used interface : Native Win32 interface for Win NT & 2000
Gap handling : Appended to previous track

Used output format : User Defined Encoder
Selected bitrate : 768 kBit/s
Quality : High
Add ID3 tag : No
Command line compressor : C:Program FilesExact Audio CopyFLACFLAC.EXE
Additional command line options : -6 -V -T "ARTIST=%artist%" -T "TITLE=%title%" -T "ALBUM=%albumtitle%" -T "DATE=%year%" -T "TRACKNUMBER=%tracknr%" -T "GENRE=%genre%" -T "COMMENT=%comment%" -T "BAND=%albuminterpret%" -T "ALBUMARTIST=%albuminterpret%" -T "COMPOSER=%composer%" %haslyrics%--tag-from-file=LYRICS="%lyricsfile%"%haslyrics% -T "DISCNUMBER=%cdnumber%" -T "TOTALDISCS=%totalcds%" -T "TOTALTRACKS=%numtracks%" %hascover%--picture="%coverfile%"%hascover% %source% -o %dest%

TOC of the extracted CD

Track | Start | Length | Start sector | End sector
---------------------------------------------------------
1 | 0:00.00 | 1:44.59 | 0 | 7858
2 | 1:44.59 | 1:54.28 | 7859 | 16436
3 | 3:39.12 | 2:33.27 | 16437 | 27938
4 | 6:12.39 | 3:56.42 | 27939 | 45680
5 | 10:09.06 | 2:44.20 | 45681 | 58000
6 | 12:53.26 | 1:49.03 | 58001 | 66178
7 | 14:42.29 | 4:05.70 | 66179 | 84623
&nb
5e5dec77b9971e23143648c0a5b88b661802a27c(2012) Bleeding Through / The Great Fire (Symphonic Metalcore/Hardcore) [FLAC (tracks+.cue), lossless] (2012) Bleeding Through / The Great Fire (Symphonic Metalcore/Hardcore) [FLAC (tracks+.cue), lossless] " />

Аплоадер: Админ, дата: 15-03-2012, 11:19, торрент скачан: 359 раз

Понравилась раздача? Посмотрите эти:
  • (2013) Prodigy & The Alchemist / Albert Einstein (Underground Hip-Hop) [FLA ...
  • (2013) Fall Out Boy / Save Rock and Roll (Pop-Punk) [ALAC (tracks), lossles ...
  • (2012) Lazlo / Lazlo (Electro Swing, Nu Jazz, Electronic) [FLAC (tracks+.cu ...
  • (2010) Clean Tears / Innerve (Techno, Vocaloid) [FLAC (tracks+.cue), lossle ...
  • (2011) Disturbed / The Lost Children (Alternative Metal) [FLAC (tracks+.cue ...
  • (2012) Katie Melua / Secret Symphony (Jazz Pop, Vocal Jazz) [FLAC (tracks+. ...
  • (2012) Mark Lanegan Band / Blues Funeral (Alternative Rock/Blues Rock) [FLA ...
  • (2012) Marconi Union / Different Colours (Post Rock, Downtempo, Ambient) [F ...
  • (2012) Tomandandy / Resident Evil: Retribution (Score, Soundtrack)[FLAC (tr ...
  • (1996) The Rasmus / Peep (Finnish Version) (Alternative Rock) [FLAC (tracks ...
  • (2012) Usher / Looking 4 Myself (Deluxe Version) (R&B, Soul) [FLAC (tracks+ ...
  • (2011) Mistabishi / Trip (Drum & Bass, Breakbeat) [FLAC (tracks+.cue), loss ...
  • (2012) Buckethead / Electric Sea (Experimental/Acoustic/Ambient/Rock) [FLAC ...
  • (2012) Les Friction / Les Friction (Alt. Rock/Neo-Classical/Orchestral) [FL ...
  • (2011) SeeS / The enD (Progressive/Math Metal) [FLAC (tracks+.cue), lossles ...
  • (2012) Our Lady Peace / Curve (Alternative/Rock) [FLAC (tracks+.cue), lossl ...
  • (2011) Terra Tenebrosa / The Tunnels (Atmospheric Sludge Post-Metal/Psyched ...
  • (2012) Nine Lashes / World We View (Alt.Rock/Alt.Metal/Christian) [FLAC (tr ...
  • (2011) Phinehas / Thegodmachine (Metalcore) [FLAC (tracks+.cue), lossless]
  • (2012) For Today / Immortal (Metalcore, Hardcore, Christian) [FLAC (tracks+ ...
  • Информация
    Посетители, находящиеся в группе Гости, не могут оставлять комментарии к данной публикации.