вход на сайт

Имя пользователя :
Пароль :

Восстановление пароля Регистрация
(2011) Vildhjarta / Måsstaden (Progressive Math Metal/Djent) [FLAC (tracks+.cue), lossless]
Рейтинг:
(голосов: 1)



[img]{THEME}/images/logopost.png[/img]





Альбом: Måsstaden
Тип альбома: Cтудийный
Год выпуска: 2011
Страна: Швеция
Жанр: Progressive Math Metal/Djent
Формат: FLAC (tracks+.cue)
Битрейт: lossless
Log-файл: Присутствует
Продолжительность: 00:51:30


01. Shadow (03:38)
02. Dagger (04:25)
03. Eternal Golden Monk (03:51)
04. Benblåst (03:13)
05. Östpeppar (01:56)
06. Traces (06:13)
07. Phobon Nika (02:53)
08. Måsstadens Nationalsång (00:46)
09. When No One Walks With You (03:19)
10. All These Feelings (06:53)
11. Nojja (01:42)
12. Deceit (05:09)
13. The Lone Deranger (07:27)

Отчет "EAC" ▼TextExact Audio Copy V1.0 beta 3 from 29. August 2011

EAC extraction logfile from 29. November 2011, 18:46

Vildhjarta / Måsstaden

Used drive : HL-DT-STDVDRAM GH24NS50 Adapter: 0 ID: 1

Read mode : Secure
Utilize accurate stream : Yes
Defeat audio cache : Yes
Make use of C2 pointers : No

Read offset correction : 667
Overread into Lead-In and Lead-Out : No
Fill up missing offset samples with silence : Yes
Delete leading and trailing silent blocks : No
Null samples used in CRC calculations : Yes
Used interface : Native Win32 interface for Win NT & 2000
Gap handling : Appended to previous track

Used output format : User Defined Encoder
Selected bitrate : 1024 kBit/s
Quality : High
Add ID3 tag : No
Command line compressor : C:Program Files (x86)FLACflac.exe
Additional command line options : -T "artist=%artist%" -T "title=%title%" -T "album=%albumtitle%" -T "date=%year%" -T "tracknumber=%tracknr%" -T "genre=%genre%" -5 %source%

TOC of the extracted CD

Track | Start | Length | Start sector | End sector
---------------------------------------------------------
1 | 0:00.00 | 3:38.34 | 0 | 16383
2 | 3:38.34 | 4:25.52 | 16384 | 36310
3 | 8:04.11 | 3:51.65 | 36311 | 53700
4 | 11:56.01 | 3:13.43 | 53701 | 68218
5 | 15:09.44 | 1:56.19 | 68219 | 76937
6 | 17:05.63 | 6:13.10 | 76938 | 104922
7 | 23:18.73 | 2:53.70 | 104923 | 117967
8 | 26:12.68 | 0:46.48 | 117968 | 121465
9 | 26:59.41 | 3:19.20 | 121466 | 136410
10 | 30:18.61 | 6:53.22 | 136411 | 167407
11 | 37:12.08 | 1:42.11 | 167408 | 175068
12&n
79da721bb5690e60085305ed8f73f2a4d2fc4e0c(2011) Vildhjarta / Måsstaden (Progressive Math Metal/Djent) [FLAC (tracks+.cue), lossless] (2011) Vildhjarta / Måsstaden (Progressive Math Metal/Djent) [FLAC (tracks+.cue), lossless] " />

Аплоадер: Админ, дата: 14-03-2012, 23:44, торрент скачан: 359 раз

Понравилась раздача? Посмотрите эти:
  • (2011) Disturbed / The Lost Children (Alternative Metal) [FLAC (tracks+.cue ...
  • (2011) Daughtry / Break the Spell (Deluxe Edition) (Alt. Rock / Modern Rock ...
  • (2011) B.B. King / Icon (Blues) [FLAC (tracks+.cue), lossless]
  • (2011) Ляпис Трубецкой / Веселые картинки (Rock) [FLAC (tracks+.cue), lossl ...
  • (2011) Scorpions / Comeblack (Hard Rock) [FLAC (tracks+.cue)lossless]
  • (2011) Revocation / Chaos of Forms (Death Metal/Thrash) [FLAC (tracks+.cue) ...
  • (2011) Дельфин / Существо (Alternative|Experimental) [FLAC (tracks+.cue), l ...
  • (2011) Ленинград / Хна (Rock) [FLAC (tracks+.cue), lossless]
  • (Дискография, 2009-2011) Vildhjarta (Djent/Math Metal/Progressive) [mp3, 32 ...
  • (2012) Les Friction / Les Friction (Alt. Rock/Neo-Classical/Orchestral) [FL ...
  • (2011) SeeS / The enD (Progressive/Math Metal) [FLAC (tracks+.cue), lossles ...
  • (2011) Volumes / Via (Progressive Metalcore/Math Metal) [FLAC (image+.cue), ...
  • (2011) Terra Tenebrosa / The Tunnels (Atmospheric Sludge Post-Metal/Psyched ...
  • (2009) Exivious (Ex. Cynic) / Exivious (Progressive Metal/Death Metal) [FLA ...
  • (2011) The Browning / Burn This World (Deathcore/Electronic) [FLAC (tracks+ ...
  • (2012) KoRn feat. Skrillex / Chaos Lives In Everything (UK Promo) (Nu-metal ...
  • (2012) Nine Lashes / World We View (Alt.Rock/Alt.Metal/Christian) [FLAC (tr ...
  • (2011) Phinehas / Thegodmachine (Metalcore) [FLAC (tracks+.cue), lossless]
  • (2011) Skindred / Union Black (Alternative Metal, Ragga-Metal) [FLAC (track ...
  • (2012) For Today / Immortal (Metalcore, Hardcore, Christian) [FLAC (tracks+ ...
  • Информация
    Посетители, находящиеся в группе Гости, не могут оставлять комментарии к данной публикации.