вход на сайт

Имя пользователя :
Пароль :

Восстановление пароля Регистрация
(2011) Volumes / Via (Progressive Metalcore/Math Metal) [FLAC (image+.cue), lossless]
Рейтинг:
(голосов: 1)



[img]{THEME}/images/logopost.png[/img]





Альбом: Via
Тип альбома: Cтудийный
Год выпуска: 2011
Страна: США
Жанр: Progressive Metalcore/Math Metal
Формат: FLAC (image+.cue)
Битрейт: lossless
Log-файл: Присутствует
Продолжительность: 00:50:11


01. Paid In Full(3:59)
02. Wormholes(5:33)
03. Limitless(3:02)
04. Reversion(1:49)
05. Serenity(4:40)
06. The Columbian Faction(4:31)
07. Affirmation of Ascension(4:49)
08. Intake(5:26)
09. Behind The Curtain(4:26)
10. Recovery(1:34)
11. Edge Of The Earth(4:54)
12. Via(5:29)

Отчет "EAC" ▼TextExact Audio Copy V1.0 beta 3 from 29. August 2011

EAC extraction logfile from 17. January 2012, 15:42

Volumes / Via

Used drive : Optiarc DVD RW AD-7263S Adapter: 5 ID: 0

Read mode : Secure
Utilize accurate stream : Yes
Defeat audio cache : Yes
Make use of C2 pointers : No

Read offset correction : 48
Overread into Lead-In and Lead-Out : No
Fill up missing offset samples with silence : Yes
Delete leading and trailing silent blocks : No
Null samples used in CRC calculations : Yes
Used interface : Native Win32 interface for Win NT & 2000

Used output format : User Defined Encoder
Selected bitrate : 1024 kBit/s
Quality : High
Add ID3 tag : No
Command line compressor : C:Program FilesExact Audio CopyFlacflac.exe
Additional command line options : -8 -V -T "ARTIST=%artist%" -T "TITLE=%title%" -T "ALBUM=%albumtitle%" -T "DATE=%year%" -T "TRACKNUMBER=%tracknr%" -T "TOTALTRACKS=%numtracks%" -T "GENRE=%genre%" -T "ALBUMARTIST=%albumartist%" -T "ALBUM ARTIST=%albumartist%" -T "COMMENT=EAC Secure Mode, Test & Copy, AccurateRip, FLAC -8" %source%

TOC of the extracted CD

Track | Start | Length | Start sector | End sector
---------------------------------------------------------
1 | 0:00.00 | 3:59.03 | 0 | 17927
2 | 3:59.03 | 5:33.11 | 17928 | 42913
3 | 9:32.14 | 3:01.56 | 42914 | 56544
4 | 12:33.70 | 1:49.20 | 56545 | 64739
5 | 14:23.15 | 4:40.29 | 64740 | 85768
6 | 19:03.44 | 4:30.59 | 85769 | 106077
7 | 23:34.28 | 4:49.20 | 106078 | 127772
8 | 28:23.48 | 5:25.47 | 127773 | 152194
9 | 33:49.20 | 4:25.64 | 152195 | 172133
10 | 38:15.09 | 1:33.38 | 172134 | 179146
11 | 39:48.47 | 4:54.04 | 179147 | 201200
12 | 44:4
27524734cc9dc81d1cf8fa0303e5283549c2eb7b(2011) Volumes / Via (Progressive Metalcore/Math Metal) [FLAC (image+.cue), lossless] (2011) Volumes / Via (Progressive Metalcore/Math Metal) [FLAC (image+.cue), lossless] " />

Аплоадер: Админ, дата: 14-03-2012, 23:40, торрент скачан: 359 раз

Понравилась раздача? Посмотрите эти:
  • (2013) Buddy Guy / Rhythm & Blues (2CD) (Blues) [FLAC (image+.cue), Lossles ...
  • (2013) Paul McCartney / New (Deluxe Edition) (Rock) [FLAC (image,+.cue), lo ...
  • (2010) Zaz / Zaz (Nu jazz, Chanson, Soul) [FLAC (tracks+.cue), lossless]
  • (2011) Disturbed / The Lost Children (Alternative Metal) [FLAC (tracks+.cue ...
  • (2011) Daughtry / Break the Spell (Deluxe Edition) (Alt. Rock / Modern Rock ...
  • (2011) Linkin Park / LP Underground 11 (Alternative Rock) [FLAC (Image+cue) ...
  • (2011) B.B. King / Icon (Blues) [FLAC (tracks+.cue), lossless]
  • (2012) Paul Van Dyk / Evolution (Progressive House, Trance) [FLAC (tracks+. ...
  • (2011) Mistabishi / Trip (Drum & Bass, Breakbeat) [FLAC (tracks+.cue), loss ...
  • (2012) Buckethead / Electric Sea (Experimental/Acoustic/Ambient/Rock) [FLAC ...
  • (2012) Les Friction / Les Friction (Alt. Rock/Neo-Classical/Orchestral) [FL ...
  • (2011) SeeS / The enD (Progressive/Math Metal) [FLAC (tracks+.cue), lossles ...
  • (2011) Vildhjarta / Måsstaden (Progressive Math Metal/Djent) [FLAC (tracks+ ...
  • (2012) Bleeding Through / The Great Fire (Symphonic Metalcore/Hardcore) [FL ...
  • (2012) Our Lady Peace / Curve (Alternative/Rock) [FLAC (tracks+.cue), lossl ...
  • (2011) Terra Tenebrosa / The Tunnels (Atmospheric Sludge Post-Metal/Psyched ...
  • (2012) Soulfly / Enslaved [Deluxe Edition] (Groove Metal/Thrash Metal) [FLA ...
  • (2012) Nine Lashes / World We View (Alt.Rock/Alt.Metal/Christian) [FLAC (tr ...
  • (2011) Phinehas / Thegodmachine (Metalcore) [FLAC (tracks+.cue), lossless]
  • (2012) For Today / Immortal (Metalcore, Hardcore, Christian) [FLAC (tracks+ ...
  • Информация
    Посетители, находящиеся в группе Гости, не могут оставлять комментарии к данной публикации.