вход на сайт

Имя пользователя :
Пароль :

Восстановление пароля Регистрация
(2012) Nightwish / The Crow, The Owl And The Dove (Sympho-Power Metal) [FLAC (tracks+.cue), lossless]
Рейтинг:
(голосов: 1)



[img]{THEME}/images/logopost.png[/img]



Исполнитель Nightwish
Альбом: The Crow, The Owl And The Dove
Тип альбома: Single
Год выпуска: 2012
Лейбл (Страна): Scene Nation Oy (Finland)
Номер по каталогу: SCENECDS-005
Жанр: Symphonic Power Metal
Формат:FLAC (tracks+.cue)
Битрейт:lossless
Продолжительность:00:21:00

Треклист:

01. Nightwish - The Crow, The Owl And The Dove (Radio Edit) (03:49)
02. Nightwish - The Heart Asks Pleasure First (Theme From The Movie Piano) (04:23)
03. Nightwish - The Crow, The Owl And The Dove (Album Version) (04:12)
04. Nightwish - The Crow, The Owl And The Dove (Instrumental Version) (04:13)
05. Nightwish - The Heart Asks Pleasure First (Instrumental Version) (04:20)

EAC лог ▼Text
Exact Audio Copy V1.0 beta 2 from 29. April 2011

EAC extraction logfile from 5. March 2012, 14:11

Nightwish / The Crow, The Owl And The Dove

Used drive : HL-DT-STDVDRAM GH22NS50 Adapter: 5 ID: 1

Read mode : Secure
Utilize accurate stream : Yes
Defeat audio cache : Yes
Make use of C2 pointers : No

Read offset correction : 667
Overread into Lead-In and Lead-Out : No
Fill up missing offset samples with silence : Yes
Delete leading and trailing silent blocks : No
Null samples used in CRC calculations : Yes
Used interface : Native Win32 interface for Win NT & 2000
Gap handling : Appended to previous track

Used output format : User Defined Encoder
Selected bitrate : 1024 kBit/s
Quality : High
Add ID3 tag : No
Command line compressor : C:Program Files (x86)FLACflac.exe
Additional command line options : -8 -V -T "ARTIST=%artist%" -T "TITLE=%title%" -T "ALBUM=%albumtitle%" -T "DATE=%year%" -T "TRACKNUMBER=%tracknr%" -T "GENRE=%genre%" -T "PERFORMER=%albuminterpret%" -T "COMPOSER=%composer%" %haslyrics%--tag-from-file=LYRICS


TOC of the extracted CD

Track | Start | Length | Start sector | End sector
---------------------------------------------------------
1 | 0:00.00 | 3:49.68 | 0 | 17242
2 | 3:49.68 | 4:23.58 | 17243 | 37025
3 | 8:13.51 | 4:12.70 | 37026 | 55995
4 | 12:26.46 | 4:13.05 | 55996 | 74975
5 | 16:39.51 | 4:20.49 | 74976 | 94524


Track 1

Filename G:! ripovano1 The Crow, The Owl And The Dove (Radio Edit).wav

Pre-gap length 0:00:02.00

Peak level 100.0 %
Extraction speed 1.0 X
Track quality 100.0 %
Test CRC 1D9C9B01
Copy CRC 1D9C9B01
Track n
b500d4f272fe7e00b9eb10e1ade7d703274db8e9(2012) Nightwish / The Crow, The Owl And The Dove (Sympho-Power Metal) [FLAC (tracks+.cue), lossless] (2012) Nightwish / The Crow, The Owl And The Dove (Sympho-Power Metal) [FLAC (tracks+.cue), lossless] " />

Аплоадер: Админ, дата: 6-03-2012, 00:03, торрент скачан: 359 раз

Понравилась раздача? Посмотрите эти:
  • (2011) Disturbed / The Lost Children (Alternative Metal) [FLAC (tracks+.cue ...
  • (2012) Katie Melua / Secret Symphony (Jazz Pop, Vocal Jazz) [FLAC (tracks+. ...
  • (2008, Сборник) VA / Relax Piano - Yesterday - Trai Tim Mua Thu - Vol.7 (Ne ...
  • (2012) Tomandandy / Resident Evil: Retribution (Score, Soundtrack)[FLAC (tr ...
  • (2012) The Piano Guys / The Piano Guys (Contemporary Classic, Instrumental, ...
  • (2012) Usher / Looking 4 Myself (Deluxe Version) (R&B, Soul) [FLAC (tracks+ ...
  • (2011) Revocation / Chaos of Forms (Death Metal/Thrash) [FLAC (tracks+.cue) ...
  • (2012) Buckethead / Electric Sea (Experimental/Acoustic/Ambient/Rock) [FLAC ...
  • (2012) Nightwish / The Crow, The Owl And The Dove (CD Single) (Symphonic Po ...
  • (2012) Les Friction / Les Friction (Alt. Rock/Neo-Classical/Orchestral) [FL ...
  • (2011) SeeS / The enD (Progressive/Math Metal) [FLAC (tracks+.cue), lossles ...
  • (2012) Bleeding Through / The Great Fire (Symphonic Metalcore/Hardcore) [FL ...
  • (2012) Our Lady Peace / Curve (Alternative/Rock) [FLAC (tracks+.cue), lossl ...
  • (2011) Terra Tenebrosa / The Tunnels (Atmospheric Sludge Post-Metal/Psyched ...
  • (2012) Nightwish / Imaginaerum (Tour Edition) (Sympho Power Metal) [FLAC (t ...
  • (2012) KoRn feat. Skrillex / Chaos Lives In Everything (UK Promo) (Nu-metal ...
  • (2012) Nine Lashes / World We View (Alt.Rock/Alt.Metal/Christian) [FLAC (tr ...
  • (2011) Phinehas / Thegodmachine (Metalcore) [FLAC (tracks+.cue), lossless]
  • (2011) Ink Stained Promises / Relations. (Metalcore, Hardcore) [FLAC (track ...
  • (2012) For Today / Immortal (Metalcore, Hardcore, Christian) [FLAC (tracks+ ...
  • Информация
    Посетители, находящиеся в группе Гости, не могут оставлять комментарии к данной публикации.