вход на сайт

Имя пользователя :
Пароль :

Восстановление пароля Регистрация
(2011) Metallica / Beyond Magnetic (Thrash Metal) [FLAC (image+.cue), lossless]
Рейтинг:
(голосов: 1)



[img]{THEME}/images/logopost.png[/img]





Альбом: Beyond Magnetic
Тип альбома: EP
Год выпуска: 2011
Страна: США
Жанр: Thrash Metal
Формат: FLAC (image+.cue)
Битрейт: lossless
Log-файл: Присутствует
Продолжительность: 00:29:11


01. Hate Train (6:59)
02. Just A Bullet Away (7:11)
03. Hell And Back (6:58)
04. Rebel Of Babylon (8:02)

Отчет "EAC" ▼TextExact Audio Copy V1.0 beta 3 from 29. August 2011

EAC extraction logfile from 4. February 2012, 12:28

Metallica / Beyond Magnetic (CDS, Vertigo 2794686)

Used drive : PIONEER DVD-RW DVR-219L Adapter: 2 ID: 0

Read mode : Secure
Utilize accurate stream : Yes
Defeat audio cache : Yes
Make use of C2 pointers : No

Read offset correction : 6
Overread into Lead-In and Lead-Out : No
Fill up missing offset samples with silence : Yes
Delete leading and trailing silent blocks : No
Null samples used in CRC calculations : Yes
Used interface : Native Win32 interface for Win NT & 2000

Used output format : Internal WAV Routines
Sample format : 44.100 Hz; 16 Bit; Stereo

TOC of the extracted CD

Track | Start | Length | Start sector | End sector
---------------------------------------------------------
1 | 0:00.09 | 6:59.20 | 9 | 31453
2 | 6:59.29 | 7:11.36 | 31454 | 63814
3 | 14:10.65 | 6:57.67 | 63815 | 95156
4 | 21:08.57 | 8:02.05 | 95157 | 131311

Range status and errors

Selected range

Filename F:.www.AvaxHome.ruMetallica - Beyond Magnetic (CDS, Vertigo 2794686).wav

Peak level 100.0 %
Extraction speed 6.3 X
Range quality 100.0 %
Test CRC FFE2303A
Copy CRC FFE2303A
Copy OK

No errors occurred

AccurateRip summary

Track 1 not present in database
Track 2 not present in database
Track 3 not present in database
Track 4 not present in database

None of the tracks are present in the AccurateRip database

End of status report

==== Log checksum CBD9505096304FAC7944C4CBD57634F5F143599017CE3E7628664CFA8E5932F4 ====






ebab170eeeee02549fbe65f26bc81993d4eb3b07(2011) Metallica / Beyond Magnetic (Thrash Metal) [FLAC (image+.cue), lossless] (2011) Metallica / Beyond Magnetic (Thrash Metal) [FLAC (image+.cue), lossless] " />

Аплоадер: Админ, дата: 18-02-2012, 22:46, торрент скачан: 359 раз

Понравилась раздача? Посмотрите эти:
  • (2013) Мумий Тролль / SOS Матросу - 2013, (Rock) [FLAC (image+.cue), lossle ...
  • (2013) Depeche Mode - Heaven (CD Maxi-Single) (Synthpop) [FLAC (image+.cue) ...
  • (2011) Mylene Farmer/ Bleu Noir (CDS + CDM) (Pop) [APE (image+.cue) lossles ...
  • (2011) Scar Symmetry / The Unseen Empire (Melodic Death Metal) [FLAC (image ...
  • (1986 [2010]) Пикник / Иероглиф (Полная история) (Rock) [WavPack (image+.cu ...
  • (2001) Пикник / Египтянин (Полная история) (Rock) [WavPack (image+.cue), lo ...
  • (2011) Sepultura / Kairos (Thrash Metal) [Flac(image+.cue)lossless]
  • (2012) Linkin Park / Burn It Down (Alternative Rock) (Single) [FLAC (image+ ...
  • (Дискография, 1987-1999) Obliveon (Technical Thrash Metal) [FLAC (image+.cu ...
  • (2011 15CD Box Set Digitally Remaster) Rush - Sectors (Rock, Progressive R ...
  • (2009) Miley Cyrus / The Time of Our Lives (Pop) [FLAC (tracks+.cue), lossl ...
  • (2011) VA / Танцевальный Рай 27 (Pop) [FLAC (image+.cue), lossless]
  • (2011) Linkin Park / Iridescent (Alternative Rock) [FLAC(image+.cue), lossl ...
  • (2011) Stargazery / Eye On The Sky (Heavy Metal) [FLAC (image+.cue), lossle ...
  • (2011) JORN / Live In Black (Heavy/Progressive Metal ) [FLAC (image+.cue), ...
  • (2011) Rammstein / Mein Land (Neue Deutsche Harte, Industrial, Tanz-Metal) ...
  • (2011) Adriano Celentano / Facciamo Finta Che Sia Vero (POP) [FLAC (image+. ...
  • (2011) Сурганова & Оркестр / Увидимся скоро (Rock) [FLAC (image+.cue), loss ...
  • (2011) This Will Destroy You / Tunnel Blanket (Post Rock) [FLAC (tracks+.cu ...
  • (2012) Adrenaline Mob / Omerta (Heavy Metal/Progressive/Nu-Metal) [FLAC (im ...
  • (2012) Crippled Black Phoenix / (Mankind) The Crafty Ape (Alternative/Indie ...
  • (2010) Татьяна Буланова / Романсы (Pop) [FLAC (image+.cue), lossless]
  • (2012) Game Over / For Humanity (Thrash Metal) [FLAC (image+.cue), lossless ...
  • (2011) Lou Reed & Metallica / Lulu (Heavy Metal, Hard Rock) [FLAC (image+.c ...
  • (2010) Punish My Heaven / First Punishment (Melodic Death Metal, Metalcore) ...
  • Информация
    Посетители, находящиеся в группе Гости, не могут оставлять комментарии к данной публикации.