вход на сайт

Имя пользователя :
Пароль :

Восстановление пароля Регистрация
(2012) Caliban / I Am Nemesis [Deluxe Edition] (Metalcore) [FLAC (tracks+.cue), lossless]
Рейтинг:
(голосов: 1)



[img]{THEME}/images/logopost.png[/img]





Альбом: I Am Nemesis
Тип альбома: Студийный
Год выпуска: 2012
Страна: Германия
Жанр: Metalcore
Формат: FLAC (tracks+.cue)
Битрейт: lossless
Log-файл: Присутствует
Продолжительность: 01:19:37


Прдолжительность: 00:45:27
01. We Are The Many (04:00)
02. The Bogeyman (03:07)
03. Memorial (04:18)
04. No Tomorrow (03:25)
05. Edge Of Black (04:57)
06. Davy Jones (04:05)
07. Deadly Dream (04:01)
08. Open Letter (03:37)
09. Dein R3.ich (03:29)
10. Broadcast To Damnation (03:31)
11. This Oath (03:28)
12. Modern Warfare (03:21)
CD2:
Прдолжительность: 00:34:09
01. Shout at the devil (Originally by Motley crue) (03:36)
02. Sonne (originally by Rammstein) (03:47)
03. Feasting On The Blood Of The Insane (originally by Six Feet Under) (04:32)
04. Die Die My Darling (originally by Misfits) (03:45)
05. Blinded By Fear (originally by At The Gates) (02:34)
06. High Hopes (originally by Pink Floyd) (06:35)
07. Among The Living (originally by Anthrax) (05:48)
08. Edge Of Black (Remix) (03:31)

Отчет"EAC"(1CD) ▼TextExact Audio Copy V1.0 beta 3 from 29. August 2011

EAC extraction logfile from 3. February 2012, 15:27

Caliban / I Am Nemesis

Used drive : PLDS DVD-ROM DH-16D2S Adapter: 2 ID: 0

Read mode : Secure
Utilize accurate stream : Yes
Defeat audio cache : Yes
Make use of C2 pointers : No

Read offset correction : 6
Overread into Lead-In and Lead-Out : No
Fill up missing offset samples with silence : Yes
Delete leading and trailing silent blocks : No
Null samples used in CRC calculations : Yes
Used interface : Native Win32 interface for Win NT & 2000
Gap handling : Appended to previous track

Used output format : User Defined Encoder
Selected bitrate : 1024 kBit/s
Quality : High
Add ID3 tag : No
Command line compressor : C:Program FilesExact Audio CopyFlacflac.exe
Additional command line options : -8 -V %source% -o %dest%

TOC of the extracted CD

Track | Start | Length | Start sector | End sector
---------------------------------------------------------
1 | 0:00.00 | 4:00.45 | 0 | 18044
2 | 4:00.45 | 3:07.55 | 18045 | 32124
3 | 7:08.25 | 4:18.64 | 32125 | 51538
4 | 11:27.14 | 3:25.74 | 51539 | 66987
5 | 14:53.13 | 4:57.43 | 66988 | 89305
6 | 19:50.56 | 4:05.41 | 89306 | 107721
7 | 23:56.22 | 4:01.39 | 107722 | 125835
8 | 27:57.61 | 3:37.41 | 125836 | 142151
9 | 31:35.27 | 3:29.73 | 1
80666219f3d1f22a0a4548433887b9517cef50f7(2012) Caliban / I Am Nemesis [Deluxe Edition] (Metalcore) [FLAC (tracks+.cue), lossless] (2012) Caliban / I Am Nemesis [Deluxe Edition] (Metalcore) [FLAC (tracks+.cue), lossless] " />

Аплоадер: Админ, дата: 14-02-2012, 13:22, торрент скачан: 359 раз

Понравилась раздача? Посмотрите эти:
  • (2012) Caliban / I Am Nemesis [Special Edition] (2 CD) (Metalcore) [MP3, 3 ...
  • (2013) Bon Jovi / What About Now (Deluxe Edition) (Hard Rock) [FLAC (tracks ...
  • (2009) SHAKIRA / She Wolf (US Edition) (Pop) [Flac (tracks+.cue), lossless] ...
  • (2010)Scorpions/Sting In The Tail [FLAC (tracks+cue), lossless]
  • (2008) Pink / Funhouse (Pop) [FLAC (tracks) lossless]
  • (2010) Eminem / Recovery (Rap / Hip-Hop) [FLAC (tracks+.cue) lossless]
  • (2010) Michael Jackson - Michael (Pop) [FLAC, (tracks+.cue), lossless]
  • (2009) Michael Jackson / The Stripped Mixes (POP) [Flac / Tracks + .cue]
  • (2009) Radiohead / Hail To The Thief [Collectors Edition: 2-nd CD] (Alterna ...
  • (2011) Hollywood Undead / American Tragedy (Deluxe Edition) (Alternative/Hi ...
  • (2011) Daughtry / Break the Spell (Deluxe Edition) (Alt. Rock / Modern Rock ...
  • (2012) Son Of A Bad Man / Heres To The Falling In... (Alt.Rock) [FLAC (trac ...
  • (2010) Ne-Yo / Libra Scale (Japanese Edition) (RnB) [FLAC (tracks+.cue) los ...
  • (2010) Rihanna / Loud (R&B) [FLAC (tracks+.cue), lossless]
  • (2011) Chris Brown / F.A.M.E. (Deluxe Edition) (R&B) [FLAC (tracks+.cue), l ...
  • (2003) DJ Zinc / Faster (DnB, Breaks) [ FLAC (tracks+.cue), lossless]
  • (2008) Scars on Broadway / Scars on Broadway (Japan Edition) (Alt.Metal/Exp ...
  • (2011) Ленинград / Хна (Rock) [FLAC (tracks+.cue), lossless]
  • (2012) The Cranberries / Roses (Alternative Rock / Pop-Rock) [FLAC (tracks+ ...
  • (2012) Bleeding Through / The Great Fire (Symphonic Metalcore/Hardcore) [FL ...
  • (2012) Оргия Праведников / Шитрок (Rock/Progressive Rock) [FLAC (tracks+cue ...
  • (2011) The Soulless / Isolated (Melodic Death Metal/Metalcore) [FLAC (track ...
  • (2011) Phinehas / Thegodmachine (Metalcore) [FLAC (tracks+.cue), lossless]
  • (2012) For Today / Immortal (Metalcore, Hardcore, Christian) [FLAC (tracks+ ...
  • (2012) Schiller / Sonne (3 CD) (Limited Ultra Deluxe Edition) (Ambient/Chil ...
  • Информация
    Посетители, находящиеся в группе Гости, не могут оставлять комментарии к данной публикации.