вход на сайт

Имя пользователя :
Пароль :

Восстановление пароля Регистрация
(2011) Revocation / Chaos of Forms (Death Metal/Thrash) [FLAC (tracks+.cue), lossless]
Рейтинг:
(голосов: 1)



[img]{THEME}/images/logopost.png[/img]





Альбом: Chaos of Forms
Тип альбома: Студийный
Год выпуска: 2011
Страна: США
Жанр: Death Metal/Thrash
Формат: FLAC (tracks+.cue)
Битрейт: lossless
Log-файл: Присутствует
Продолжительность: 00:47:01



01.Cretin[03:03]
02.Cradle Robber[04:24]
03.Harlot[02:51]
04.Dissolution Ritual[04:37]
05.Conjuring The Cataclysm[04:33]
06.No Funeral[03:55]
07.Fractal Entity[01:43]
08.Chaos of Forms[04:30]
09.The Watchers[04:12]
10.Beloved Horrifier[04:09]
11.Dethroned[04:57]
12.Reprogrammed[04:03]


Отчет "EAC": ▼TextExact Audio Copy V1.0 beta 2 from 29. April 2011

EAC extraction logfile from 5. August 2011, 5:28

Revocation / Chaos of Forms

Used drive : PHILIPS BD-RE BDD1001 Adapter: 0 ID: 2

Read mode : Secure
Utilize accurate stream : Yes
Defeat audio cache : Yes
Make use of C2 pointers : No

Read offset correction : 618
Overread into Lead-In and Lead-Out : No
Fill up missing offset samples with silence : Yes
Delete leading and trailing silent blocks : No
Null samples used in CRC calculations : Yes
Used interface : Native Win32 interface for Win NT & 2000
Gap handling : Appended to previous track

Used output format : User Defined Encoder
Selected bitrate : 320 kBit/s
Quality : High
Add ID3 tag : No
Command line compressor : C:Program FilesExact Audio CopyFlacflac.exe
Additional command line options : -8 -V -T "ARTIST=%artist%" -T "TITLE=%title%" -T "ALBUM=%albumtitle%" -T "DATE=%year%" -T "TRACKNUMBER=%tracknr%" -T "GENRE=%genre%" -T "PERFORMER=%albuminterpret%" -T "COMPOSER=%composer%" %haslyrics%--tag-from-file=LYRICS

TOC of the extracted CD

Track | Start | Length | Start sector | End sector
---------------------------------------------------------
1 | 0:00.00 | 3:03.30 | 0 | 13754
2 | 3:03.30 | 4:24.71 | 13755 | 33625
3 | 7:28.26 | 2:51.38 | 33626 | 46488
4 | 10:19.64 | 4:37.26 | 46489 | 67289
5 | 14:57.15 | 4:33.61 | 67290 | 87825
6 | 19:31.01 | 3:55.07 | 87826 | 105457
7 | 23:26.08 | 1:43.18 | 105458 | 113200
8 | 25:09.26 | 4:30.02 | 113201 | 133452
9 | 29:39.28 | 4:12.07 | 133453 | 152359
10 | 33:51.35 | 4:09.03 | 152360 | 171037
11 | 38:00.38 | 4:57.54 |
c815d70d4448bb0a85f650f1fbc1edcff7e49d10(2011) Revocation / Chaos of Forms (Death Metal/Thrash) [FLAC (tracks+.cue), lossless] (2011) Revocation / Chaos of Forms (Death Metal/Thrash) [FLAC (tracks+.cue), lossless] " />

Аплоадер: Админ, дата: 18-12-2011, 13:42, торрент скачан: 359 раз

Понравилась раздача? Посмотрите эти:
  • (2013) Prodigy & The Alchemist / Albert Einstein (Underground Hip-Hop) [FLA ...
  • (2013) Love And Death / Between Here & Lost (Nu Metal) [FLAC (tracks+.cue) ...
  • (2011) Disturbed / The Lost Children (Alternative Metal) [FLAC (tracks+.cue ...
  • (2011) Korn (KoЯn) / The Path Of Totality (Special Edition) (Nu Metal | Dub ...
  • (2012) Katie Melua / Secret Symphony (Jazz Pop, Vocal Jazz) [FLAC (tracks+. ...
  • (2012) Mark Lanegan Band / Blues Funeral (Alternative Rock/Blues Rock) [FLA ...
  • (2012) Tomandandy / Resident Evil: Retribution (Score, Soundtrack)[FLAC (tr ...
  • (2011) Mistabishi / Trip (Drum & Bass, Breakbeat) [FLAC (tracks+.cue), loss ...
  • (2011) Scorpions / Comeblack (Hard Rock) [FLAC (tracks+.cue)lossless]
  • (2011) Дельфин / Существо (Alternative|Experimental) [FLAC (tracks+.cue), l ...
  • (2011) Ленинград / Хна (Rock) [FLAC (tracks+.cue), lossless]
  • (2012) Buckethead / Electric Sea (Experimental/Acoustic/Ambient/Rock) [FLAC ...
  • (2012) Les Friction / Les Friction (Alt. Rock/Neo-Classical/Orchestral) [FL ...
  • (2011) SeeS / The enD (Progressive/Math Metal) [FLAC (tracks+.cue), lossles ...
  • (2012) Bleeding Through / The Great Fire (Symphonic Metalcore/Hardcore) [FL ...
  • (2012) Our Lady Peace / Curve (Alternative/Rock) [FLAC (tracks+.cue), lossl ...
  • (2011) Terra Tenebrosa / The Tunnels (Atmospheric Sludge Post-Metal/Psyched ...
  • (2009) Exivious (Ex. Cynic) / Exivious (Progressive Metal/Death Metal) [FLA ...
  • (2012) KoRn feat. Skrillex / Chaos Lives In Everything (UK Promo) (Nu-metal ...
  • (2011) The Soulless / Isolated (Melodic Death Metal/Metalcore) [FLAC (track ...
  • (2012) Nine Lashes / World We View (Alt.Rock/Alt.Metal/Christian) [FLAC (tr ...
  • (2011) Phinehas / Thegodmachine (Metalcore) [FLAC (tracks+.cue), lossless]
  • (2011) Ink Stained Promises / Relations. (Metalcore, Hardcore) [FLAC (track ...
  • (2011) Skindred / Union Black (Alternative Metal, Ragga-Metal) [FLAC (track ...
  • (2012) For Today / Immortal (Metalcore, Hardcore, Christian) [FLAC (tracks+ ...
  • Информация
    Посетители, находящиеся в группе Гости, не могут оставлять комментарии к данной публикации.