вход на сайт

Имя пользователя :
Пароль :

Восстановление пароля Регистрация
(1999) Necrophagist / Onset Of Putrefaction (Technical Death Metal) [FLAC (tracks+.cue), lossless]
Рейтинг:
(голосов: 1)



[img]{THEME}/images/logopost.png[/img]





Альбом: Onset Of Putrefaction
Тип альбома: Студийный
Год выпуска: 1999
Страна: Германия
Жанр: Technical Death Metal
Формат: FLAC (tracks+.cue)
Битрейт: lossless
Log-файл: Присутствует
Продолжительность: 00:35:29



01.Foul Body Autopsy[01:53]
02.To Breathe in a Casket[05:41]
03.Mutilate the Stillborn[03:42]
04.Intestinal Incubation[04:11]
05.Culinary Hyperversity[05:04]
06.Advanced Corpse Tumor[05:27]
07.Extreme Unction[04:46]
08.Fermented Offal Discharge[04:42]


Отчет "EAC": ▼Text EAC extraction logfile from 31. August 2007, 19:26 for CD
Necrophagist / Onset of Putrefaction

Used drive : HL-DT-STDVD-ROM GDR8162B Adapter: 1 ID: 1
Read mode : Secure with NO C2, accurate stream, disable cache
Read offset correction : 102
Overread into Lead-In and Lead-Out : No

Used output format : C:Program FilesExact Audio Copyflac.exe (User Defined Encoder)
128 kBit/s
Additional command line options : -8 -A tukey(0.25) -A gauss(0.1875) -b 4096 -V -T "artist=%a" -T "title=%t" -T "album=%g" -T "date=%y" -T "tracknumber=%n" -T "genre=%m" %s --sector-align

Other options :
Fill up missing offset samples with silence : Yes
Delete leading and trailing silent blocks : No
Installed external ASPI interface

Track 1
Filename F:Oink.meFLACOnset Of Putrefaction1 - Necrophagist - Foul Body Autopsy.wav

Pre-gap length 0:00:02.01

Peak level 99.0 %
Track quality 100.0 %
Test CRC B600DA7A
Copy CRC B600DA7A
Copy OK

Track 2
Filename F:Oink.meFLACOnset Of Putrefaction2 - Necrophagist - To Breathe in a Casket.wav

Peak level 100.0 %
Track quality 99.9 %
Test CRC 19578F6E
Copy CRC 19578F6E
Copy OK

Track 3
Filename F:Oink.meFLACOnset Of Putrefaction3 - Necrophagist - Mutilate the Stillborn.wav

Peak level 98.9 %
Track quality 100.0 %
Test CRC A7C7EA01
Copy CRC A7C7EA01
Copy OK

Track 4
Filename F:Oink.meFLACOnset Of Putrefaction4 - Necrophagist - Intestinal Incubation.wav

Peak level 98.9 %
Track quality 100.0 %
Test CRC 89B43B93
Copy CRC 89B43B93
Copy OK

Track 5
Filename F:Oink.meFLACOnset Of Putrefaction5 - Necrophagist - Culinary Hyperversity.wav

Peak level 99.0 %
Track quality 100.0 %
Test CRC 59113644
Copy CRC 59113644
Copy OK

Track 6
Filename F:Oink.meFLACOnset Of Putrefaction6 - Necrophagist - Advanced Corpse Tumor.wav

Peak level 99.0 %
Track quality 99.9 %
Test CRC 30556774
Copy CRC 30556774
Copy OK

Track 7
Filename F:Oink.meFLACOnset Of Putrefaction7 - Necrophagist - Extreme Unction.wav

Peak level 98.6 %
Track quality 100.0 %
Test CRC F357CF68
Copy CRC F357CF68
Copy OK

Track 8
Filename F:Oink.meFLACOnset Of Putrefaction8 - Necrophagist - Fermented Offal Discharge.wav

Peak level 99.0 %
Track quality 100.0 %
Test CRC 8ED03FBC
Copy CRC 8ED03FBC
Copy OK

No errors occured

End of status report

70da80741d3fc245d496dadf3e1c69a0a4115ae9(1999) Necrophagist / Onset Of Putrefaction (Technical Death Metal) [FLAC (tracks+.cue), lossless] (1999) Necrophagist / Onset Of Putrefaction (Technical Death Metal) [FLAC (tracks+.cue), lossless] " />

Аплоадер: Админ, дата: 18-12-2011, 13:14, торрент скачан: 359 раз

Понравилась раздача? Посмотрите эти:
  • (2013) Girls Generation (SNSD) - Galaxy Supernova / Galaxy Supernova (KPop) ...
  • (1999) Red Hot Chili Peppers - Californication (Alternative rock, Funk) [FL ...
  • (2009) The Black Eyed Peas / The E.N.D. (The Energy Never Dies) (Target Del ...
  • (2008) Karunesh /Enlightenment (New Age) [FLAC (image+.cue), lossless]
  • (2011) Orjan Nilsen / In My Opinion (Trance) [FLAC (tracks+.cue), lossless] ...
  • (2002) PPK (ППК) / ReLoad. Russian Trance (Trance) [FLAC (tracks+cue), loss ...
  • (1988) David Grisman Quintet feat. Svend Asmussen / Svingin With Svend (Jaz ...
  • (2009) Timbaland / Shock Value II (Hip-Hop / RnB) [FLAC (tracks+.cue), loss ...
  • (2012) High Contrast / The Agony & The Ecstasy (Drum and Bass) [FLAC (track ...
  • (2006) The Rasmus / Shot (Single) (Alternative Rock) [FLAC (tracks+.cue), l ...
  • (2010) [AMATORY] / Инстинкт обречённых (Nu Metal) [FLAC (tracks), lossless] ...
  • (2011) Linkin Park / Iridescent (Alternative Rock) [FLAC(image+.cue), lossl ...
  • (2011) Rammstein / Mein Land (Neue Deutsche Harte, Industrial, Tanz-Metal) ...
  • (2011) This Will Destroy You / Tunnel Blanket (Post Rock) [FLAC (tracks+.cu ...
  • (2004) Дельфин / Запись концерта 19.11.04 (Alternative|Experimental) [FLAC ...
  • (Дискография, 2002 - 2012) Rodrigo y Gabriela (Acoustic, Flamenco, Classica ...
  • (2012) Nightwish / The Crow, The Owl And The Dove (Sympho-Power Metal) [FLA ...
  • (2009) Exivious (Ex. Cynic) / Exivious (Progressive Metal/Death Metal) [FLA ...
  • (2012) KoRn feat. Skrillex / Chaos Lives In Everything (UK Promo) (Nu-metal ...
  • (2011) Ink Stained Promises / Relations. (Metalcore, Hardcore) [FLAC (track ...
  • Информация
    Посетители, находящиеся в группе Гости, не могут оставлять комментарии к данной публикации.