вход на сайт

Имя пользователя :
Пароль :

Восстановление пароля Регистрация
(Дискография, 2010-2011) Chelsea Grin (Deathcore) [FLAC (tracks+.cue), lossless]
Рейтинг:
(голосов: 1)



[img]{THEME}/images/logopost.png[/img]





Дискография
Страна: США
Жанр: Deathcore
Формат: FLAC (tracks+.cue)
Битрейт: lossless
Log-файл: Присутствует
Продолжительность: 01:10:21


▼Chelsea Grin появились в начале 2008 года, (под названием “AHAZIAH”) и уже успели выпустить дебютный 5-и трековый EP и альбом Desolation Of Eden. Гитарист и вокалист группы, Chris и Alex создали группу мечтая, собрать тучу фанатов и получать столько удовольствия пока играют музыку, сколько могут. Затем они нашли своего бассиста, Austin, второго гитариста, Michael, и ударника Andrew.

Состав группы:
Chris – Гитара
Alex – Вокал
Austin – Бас-гитара
Michael – Гитара
Andrew - Ударные.STUDIO ALBUMS:

2010 - Desolation Of Eden



Продолжительность: 00:35:17

Tреклист:
01.Judgement[01:11]
02.Desolation Of Eden[03:52]
03.False Sense Of Sanity[02:45]
04.Sonnet Of The Wretched[04:15]
05.Cheyne Stokes[02:50]
06.The Human Condition[04:02]
07.Elysium[02:28]
08.Recreant[04:26]
09.Cast From Perfection[02:43]
10.Revenant[04:12]
11.Wasteland[02:28]
"Лог EAC" ▼TextExact Audio Copy V0.99 prebeta 5 from 4. May 2009
EAC extraction logfile from 13. April 2010, 19:14
Chelsea Grin / Desolation Of Eden
Used drive : HL-DT-STDVDRAM GH20NS15 Adapter: 4 ID: 0
Read mode : Secure
Utilize accurate stream : Yes
Defeat audio cache : Yes
Make use of C2 pointers : No
Read offset correction : 667
Overread into Lead-In and Lead-Out : No
Fill up missing offset samples with silence : Yes
Delete leading and trailing silent blocks : No
Null samples used in CRC calculations : No
Used interface : Native Win32 interface for Win NT & 2000
Gap handling : Appended to previous track
Used output format : User Defined Encoder
Selected bitrate : 768 kBit/s
Quality : High
Add ID3 tag : No
Command line compressor : C:Program Files (x86)Exact Audio CopyFLACFLAC.EXE
Additional command line options : -6 -V -T "ARTIST=%a" -T "TITLE=%t" -T "ALBUM=%g" -T "DATE=%y" -T "TRACKNUMBER=%n" -T "GENRE=%m" -T "COMMENT=%e" %s -o %d
TOC of the extracted CD
Track | Start | Length | Start sector | End sector
---------------------------------------------------------
1 | 0:00.00 | 1:11.60 | 0 | 5384
2 | 1:11.60 | 3:52.02 | 5385 | 22786
3 | 5:03.62 | 2:45.04 | 22787 | 35165
4 | 7:48.66 | 4:15.44 | 35166 | 54334
5 | 12:04.35 | 2:50.20 | 54335 | 67104
6 | 14:54.55 | 4:02.59 | 67105 | 85313
7 | 18:57.39 | 2:28.00 | 85314 | 96413
8 | 21:25.39 | 4:26.62 | 96414 | 116425
9 | 25:52.26 | 2:43.40 | 116426 | 128690
10 | 28:35.66 | 4:12.65 | 128691 | 147655
11 | 32:48.56 | 2:28.46 | 147656 | 158801
Track 1
Filename C:MusicChelsea Grin - Desolation Of Eden1 - Chelsea Grin - Judgement.wav
Pre-gap length 0:00:02.00
Peak level 100.0 %
Track quality 100.0 %
Test CRC CA1F2C83
Copy CRC CA1F2C83
Track not present in AccurateRip database
Copy OK
Track 2
Filename C:MusicChelsea Grin - Desolation Of Eden2 - Chelsea Grin - Desolation Of Eden.wav
Peak level 100.0 %
Track quality 100.0 %
Test CRC 599A08EE
Copy CRC 599A08EE
Track not present in AccurateRip database
Copy OK
Track 3
Filename C:MusicChelsea Grin - Desolation Of Eden3 - Chelsea Grin - False Sense Of Sanity.wav
Peak level 100.0 %
Track quality 99.9 %
Test CRC C4B54BBE
Copy CRC C4B54BBE
Track not present in AccurateRip database
Copy OK
Track 4
Filename C:MusicChelsea Grin - Desolation Of Eden4 - Chelsea Grin - Sonnet Of The Wretched.wav
Peak level 100.0 %
Track quality 100.0 %
Test CRC 81D9AC4D
Copy CRC 81D9AC4D
Track not present in AccurateRip database
Copy OK
Track 5
Filename C:MusicChelsea Grin - Desolation Of Eden5 - Chelsea Grin - Cheyne Stokes.wav
Peak level 100.0 %
Track quality 100.0 %
Test CRC 5CA14681
Copy CRC 5CA14681
Track not present in AccurateRip database
Copy OK
Track 6
Filename C:MusicChelsea Grin - Desolation Of Eden6 - Chelsea Grin - The Human Condition.wav
Peak level 100.0 %
Track quality 100.0 %
Test CRC 82B9119C
Copy CRC 82B9119C
Track not present in
20ca7814d7c7e4e85612443bf2c69ed7bbc34a56(Дискография, 2010-2011) Chelsea Grin (Deathcore) [FLAC (tracks+.cue), lossless] (Дискография, 2010-2011) Chelsea Grin (Deathcore) [FLAC (tracks+.cue), lossless] " />

Аплоадер: Админ, дата: 25-11-2011, 19:01, торрент скачан: 359 раз

Понравилась раздача? Посмотрите эти:
  • (2013) Girls Generation (SNSD) - Galaxy Supernova / Galaxy Supernova (KPop) ...
  • (2009) The Black Eyed Peas / The E.N.D. (The Energy Never Dies) (Target Del ...
  • (2010) Zaz / Zaz (Nu jazz, Chanson, Soul) [FLAC (tracks+.cue), lossless]
  • (2011) Depeche Mode / Personal Jesus 2011 Club Promo (Electronic, Synthpop) ...
  • (2008) Karunesh /Enlightenment (New Age) [FLAC (image+.cue), lossless]
  • (2011) Orjan Nilsen / In My Opinion (Trance) [FLAC (tracks+.cue), lossless] ...
  • (2002) PPK (ППК) / ReLoad. Russian Trance (Trance) [FLAC (tracks+cue), loss ...
  • (2010, сборник) VA / CDeelder Box (Swing) [FLAC (tracks+.cue), lossless]
  • (2010) Ravenna / Debrief (Alt. Rock / Christian Rock / Indie) [FLAC (tracks ...
  • (2011) B.B. King / Icon (Blues) [FLAC (tracks+.cue), lossless]
  • (2001-2003, сборник) VA / Acoustic Café (4xCD) (Classical, New Age) [FLAC ( ...
  • (2012) High Contrast / The Agony & The Ecstasy (Drum and Bass) [FLAC (track ...
  • (2006) The Rasmus / Shot (Single) (Alternative Rock) [FLAC (tracks+.cue), l ...
  • (2012) Madonna / Superstar (Pop) [FLAC (image+.cue), lossless]
  • (2009) Miley Cyrus / The Time of Our Lives (Pop) [FLAC (tracks+.cue), lossl ...
  • (2010) [AMATORY] / Инстинкт обречённых (Nu Metal) [FLAC (tracks), lossless] ...
  • (2011) Linkin Park / Iridescent (Alternative Rock) [FLAC(image+.cue), lossl ...
  • (2011) Stargazery / Eye On The Sky (Heavy Metal) [FLAC (image+.cue), lossle ...
  • (2011) Rammstein / Mein Land (Neue Deutsche Harte, Industrial, Tanz-Metal) ...
  • (Дискография, 2008-2010) Suffokate (Deathcore) [FLAC (tracks+.cue), lossles ...
  • (2011) This Will Destroy You / Tunnel Blanket (Post Rock) [FLAC (tracks+.cu ...
  • (2004) Дельфин / Запись концерта 19.11.04 (Alternative|Experimental) [FLAC ...
  • (2011) Florence & The Machine / Ceremonials (Deluxe Edition) (Indie/Alterna ...
  • (2012) KoRn feat. Skrillex / Chaos Lives In Everything (UK Promo) (Nu-metal ...
  • (2011) Ink Stained Promises / Relations. (Metalcore, Hardcore) [FLAC (track ...
  • Информация
    Посетители, находящиеся в группе Гости, не могут оставлять комментарии к данной публикации.