вход на сайт

Имя пользователя :
Пароль :

Восстановление пароля Регистрация
(Дискография, 2008-2010) Suffokate (Deathcore) [FLAC (tracks+.cue), lossless]
Рейтинг:
(голосов: 1)



[img]{THEME}/images/logopost.png[/img]





Дискография
Страна: США
Жанр: Deathcore
Формат: FLAC (tracks+.cue)
Битрейт: lossless
Log-файл: Присутствует
Продолжительность: 01:27:42


▼Suffokate - американская deathcore группа из Окленда, Калифорния. Сформировавшись в 2003 году, группа сменила множество гитаристов и басистов, пока к ней не присоеденился Bray Almini (недавно покинувший Antagony), и Chris Storey (затем перешедший в All Shall Perish) в 2004. Они записали свой первый полноформатный альбом «Oakland» с Zach Ohren, релиз которого состоялся в январе 2005 года. Была выпущена и быстро распродана только ограниченная серия альбома. Suffokate смешивает тяжелые брутальные брейкдауны с мелодичными гитарными партиями.

Состав группы:
* Taylor Jones – Гитара
* Bray Almini – Бас + бэк-вокал
* Lars Diaz – Барабаны
* Rick Hoover – Вокал
* Tesoro Protomartir - ГитараSTUDIO ALBUMS:

2008 - Oakland (re-release)



Продолжительность: 00:51:40

Tреклист:
01.Intro[00:46]
02.Slaughter Your Enemies[05:07]
03.Forever[03:52]
04.Souls And Lost Memories[04:36]
05.Unscarred[03:05]
06.Every Crisis Faced[05:27]
07.The Wrath[04:24]
08.Russian Roulette[03:32]
09.Betrayal[05:13]
10.These Eyes Will Watch You Die[04:39]
11.Five Years[04:54]
12.The Skies Were Filled With Fire[05:58]
"Лог EAC" ▼TextExact Audio Copy V0.99 prebeta 3 from 28. July 2007
EAC extraction logfile from 18. July 2008, 15:34
Suffokate / Oakland
Used drive : HL-DT-STDVDRRW GWA-4083B Adapter: 3 ID: 0
Read mode : Secure
Utilize accurate stream : Yes
Defeat audio cache : Yes
Make use of C2 pointers : No
Read offset correction : 102
Overread into Lead-In and Lead-Out : No
Fill up missing offset samples with silence : Yes
Delete leading and trailing silent blocks : No
Null samples used in CRC calculations : Yes
Used interface : Installed external ASPI interface
Gap handling : Appended to previous track
Used output format : User Defined Encoder
Selected bitrate : 128 kBit/s
Quality : High
Add ID3 tag : No
Command line compressor : J:Program FilesExact Audio Copybinflac.exe
Additional command line options : -V -8 -T "artist=%a" -T "title=%t" -T "album=%g" -T "date=%y" -T "tracknumber=%n" -T "genre=%m" %s
TOC of the extracted CD
Track | Start | Length | Start sector | End sector
---------------------------------------------------------
1 | 0:00.00 | 0:46.33 | 0 | 3482
2 | 0:46.33 | 5:07.60 | 3483 | 26567
3 | 5:54.18 | 3:52.70 | 26568 | 44037
4 | 9:47.13 | 4:36.48 | 44038 | 64785
5 | 14:23.61 | 3:05.39 | 64786 | 78699
6 | 17:29.25 | 5:27.72 | 78700 | 103296
7 | 22:57.22 | 4:24.52 | 103297 | 123148
8 | 27:21.74 | 3:32.20 | 123149 | 139068
9 | 30:54.19 | 5:13.56 | 139069 | 162599
10 | 36:08.00 | 4:39.60 | 162600 | 183584
11 | 40:47.60 | 4:54.10 | 183585 | 205644
12 | 45:41.70 | 5:58.20 | 205645 | 232514
Track 1
Filename J:New Folder (2)1 - Intro.wav
Pre-gap length 0:00:02.00
Peak level 100.0 %
Track quality 100.0 %
Test CRC FFBEB6C3
Copy CRC FFBEB6C3
Track not present in AccurateRip database
Copy OK
Track 2
Filename J:New Folder (2)2 - Slaughter Your Enemies.wav
Peak level 100.0 %
Track quality 99.9 %
Test CRC 14BE9D66
Copy CRC 14BE9D66
Track not present in AccurateRip database
Copy OK
Track 3
Filename J:New Folder (2)3 - Forever.wav
Peak level 100.0 %
Track quality 100.0 %
Test CRC 5AD418CA
Copy CRC 5AD418CA
Track not present in AccurateRip database
Copy OK
Track 4
Filename J:New Folder (2)4 - Souls And Lost Memories.wav
Peak level 100.0 %
Track quality 100.0 %
Test CRC CA10C127
Copy CRC CA10C127
Track not present in AccurateRip database
Copy OK
Track 5
Filename J:New Folder (2)5 - Unscarred.wav
Peak level 100.0 %
Track quality 100.0 %
Test CRC AEE5C355
Copy CRC AEE5C355
Track not present in AccurateRip database
Copy OK
Track 6
Filename J:New Folder (2)6 - Every Crisis Faced.wav
Peak level 100.0 %
Track quality 100.0 %
Test CRC D171F958
Copy CRC D171F958
Track not present in AccurateRip databas
f9d61fa54d0eeb50f1baf52406bf4fa95b8b958c(Дискография, 2008-2010) Suffokate (Deathcore) [FLAC (tracks+.cue), lossless] (Дискография, 2008-2010) Suffokate (Deathcore) [FLAC (tracks+.cue), lossless] " />

Аплоадер: Админ, дата: 25-11-2011, 18:44, торрент скачан: 359 раз

Понравилась раздача? Посмотрите эти:
  • (2013) Girls Generation (SNSD) - Galaxy Supernova / Galaxy Supernova (KPop) ...
  • (Дискография, 2008-2011) Suffokate (deathcore) [MP3, 320/CBR]
  • (2009) The Black Eyed Peas / The E.N.D. (The Energy Never Dies) (Target Del ...
  • (2008) Karunesh /Enlightenment (New Age) [FLAC (image+.cue), lossless]
  • (2011) Orjan Nilsen / In My Opinion (Trance) [FLAC (tracks+.cue), lossless] ...
  • (2002) PPK (ППК) / ReLoad. Russian Trance (Trance) [FLAC (tracks+cue), loss ...
  • (2010, сборник) VA / CDeelder Box (Swing) [FLAC (tracks+.cue), lossless]
  • (2010) Ravenna / Debrief (Alt. Rock / Christian Rock / Indie) [FLAC (tracks ...
  • (2001-2003, сборник) VA / Acoustic Café (4xCD) (Classical, New Age) [FLAC ( ...
  • (2012) High Contrast / The Agony & The Ecstasy (Drum and Bass) [FLAC (track ...
  • (2006) The Rasmus / Shot (Single) (Alternative Rock) [FLAC (tracks+.cue), l ...
  • (2008) Miley Cyrus - Breakout (Platinum Edition) (Pop) [FLAC (tracks+.cue), ...
  • (2009) Miley Cyrus / The Time of Our Lives (Pop) [FLAC (tracks+.cue), lossl ...
  • (2010) [AMATORY] / Инстинкт обречённых (Nu Metal) [FLAC (tracks), lossless] ...
  • (2011) Linkin Park / Iridescent (Alternative Rock) [FLAC(image+.cue), lossl ...
  • (2011) Rammstein / Mein Land (Neue Deutsche Harte, Industrial, Tanz-Metal) ...
  • (Дискография, 2010-2011) Chelsea Grin (Deathcore) [FLAC (tracks+.cue), loss ...
  • (2011) This Will Destroy You / Tunnel Blanket (Post Rock) [FLAC (tracks+.cu ...
  • (2004) Дельфин / Запись концерта 19.11.04 (Alternative|Experimental) [FLAC ...
  • (2011) Ink Stained Promises / Relations. (Metalcore, Hardcore) [FLAC (track ...
  • Информация
    Посетители, находящиеся в группе Гости, не могут оставлять комментарии к данной публикации.