вход на сайт

Имя пользователя :
Пароль :

Восстановление пароля Регистрация
(2011) JORN / Live In Black (Heavy/Progressive Metal ) [FLAC (image+.cue), lossless]
Рейтинг:
(голосов: 1)



[img]{THEME}/images/logopost.png[/img]





Альбом: Live In Black
Тип альбома: Live
Год выпуска: 2011
Страна: Норвегия
Жанр: HeavyMetal
Формат: FLAC (image+.cue)
Битрейт: lossless
Log-файл: Присутствует
Продолжительность: 00:39:01+00:44:51


▼01.Road Of The Cross [03:57]
02.Shadow People [05:29]
03.Below [04:07]
04.We Brought The Angels Down [03:47]
05.Stormcrow [03:28]
06.Spirit Black [03:16]
07.The Inner Road [04:55]
08.Man Of The Dark [03:33]
CD2:
01.Blacksong [03:57]
02.Guitar Solo [05:29]
03.Tungur Knivur [04:07]
04.Guitar Solo [03:47]
05.Rock And Roll Angel [03:28]
06.Drum Solo [03:16]
07.Soul Of The Wind [04:55]
08.Are You Ready [03:33]
09.War Of The World[03:33]


"Отчет EAC" ▼TextCD1:

Exact Audio Copy V1.0 beta 1 from 15. November 2010

EAC extraction logfile from 22. September 2011, 21:05

JORN / Live In Black

Used drive : HL-DT-STDVDRAM GSA-T50N Adapter: 0 ID: 1

Read mode : Secure
Utilize accurate stream : Yes
Defeat audio cache : Yes
Make use of C2 pointers : No

Read offset correction : 667
Overread into Lead-In and Lead-Out : No
Fill up missing offset samples with silence : Yes
Delete leading and trailing silent blocks : No
Null samples used in CRC calculations : Yes
Used interface : Native Win32 interface for Win NT & 2000

Used output format : User Defined Encoder
Selected bitrate : 128 kBit/s
Quality : High
Add ID3 tag : No
Command line compressor : C:Program FilesExact Audio CopyFlacflac.exe
Additional command line options : -8 -V %s

TOC of the extracted CD

Track | Start | Length | Start sector | End sector
---------------------------------------------------------
1 | 0:00.00 | 5:51.45 | 0 | 26369
2 | 5:51.45 | 3:45.16 | 26370 | 43260
3 | 9:36.61 | 5:26.06 | 43261 | 67716
4 | 15:02.67 | 4:24.49 | 67717 | 87565
5 | 19:27.41 | 3:56.62 | 87566 | 105327
6 | 23:24.28 | 4:26.02 | 105328 | 125279
7 | 27:50.30 | 5:12.52 | 125280 | 148731
8 | 33:03.07 | 5:58.18 | 148732 | 175599

Range status and errors

Selected range

Filename C:DownloadJORNJORN - Live In Black (CD1).wav

Peak level 99.9 %
Extraction speed 0.5 X
Range quality 100.0 %
Test CRC 828B5157
Copy CRC 828B5157
Copy OK

No errors occurred

AccurateRip summary

Track 1 not present in database
Track 2 not present in database
Track 3 not present in database
Track 4 not present in databas
9cdb8517cbf3e4fd70dd1f2030fe0333a16eda66(2011) JORN / Live In Black (Heavy/Progressive Metal ) [FLAC (image+.cue), lossless] (2011) JORN / Live In Black (Heavy/Progressive Metal ) [FLAC (image+.cue), lossless] " />

Аплоадер: Админ, дата: 13-11-2011, 10:44, торрент скачан: 359 раз

Понравилась раздача? Посмотрите эти:
  • (2013) Мумий Тролль / SOS Матросу - 2013, (Rock) [FLAC (image+.cue), lossle ...
  • (1989) Kaoma / Lambada (lambada / latin / ethnic) [FLAC (image+.cue), lossl ...
  • (2010) Ассаи / Лифт (Rap) [FLAC(image+.cue), lossless]
  • (2011) Scar Symmetry / The Unseen Empire (Melodic Death Metal) [FLAC (image ...
  • (2011) Sepultura / Kairos (Thrash Metal) [Flac(image+.cue)lossless]
  • (2012) Axel Rudi Pell / Circle Of The Oath (Limited Edition Digipack) (Melo ...
  • (2012) Linkin Park / Burn It Down (Alternative Rock) (Single) [FLAC (image+ ...
  • (2012) Kreator / Phantom Antichrist (Thrash Metal) [FLAC (image+.cue), loss ...
  • (2006) The Rasmus / Shot (Single) (Alternative Rock) [FLAC (tracks+.cue), l ...
  • (2012) Madonna / Superstar (Pop) [FLAC (image+.cue), lossless]
  • (2009) Miley Cyrus / The Time of Our Lives (Pop) [FLAC (tracks+.cue), lossl ...
  • (2011) VA / Танцевальный Рай 27 (Pop) [FLAC (image+.cue), lossless]
  • (2011) Linkin Park / Iridescent (Alternative Rock) [FLAC(image+.cue), lossl ...
  • (2011) Stargazery / Eye On The Sky (Heavy Metal) [FLAC (image+.cue), lossle ...
  • (2011) Rammstein / Mein Land (Neue Deutsche Harte, Industrial, Tanz-Metal) ...
  • (2011) Adriano Celentano / Facciamo Finta Che Sia Vero (POP) [FLAC (image+. ...
  • (2011) Сурганова & Оркестр / Увидимся скоро (Rock) [FLAC (image+.cue), loss ...
  • (2011) This Will Destroy You / Tunnel Blanket (Post Rock) [FLAC (tracks+.cu ...
  • (2011) Metallica / Beyond Magnetic (Thrash Metal) [FLAC (image+.cue), lossl ...
  • (2012) Adrenaline Mob / Omerta (Heavy Metal/Progressive/Nu-Metal) [FLAC (im ...
  • (2012) Crippled Black Phoenix / (Mankind) The Crafty Ape (Alternative/Indie ...
  • (2012) Fox / 2012 (Melodic Hard Rock) [FLAC (image +.cue), lossless]
  • (2012) Game Over / For Humanity (Thrash Metal) [FLAC (image+.cue), lossless ...
  • (2011) Lou Reed & Metallica / Lulu (Heavy Metal, Hard Rock) [FLAC (image+.c ...
  • (2010) Punish My Heaven / First Punishment (Melodic Death Metal, Metalcore) ...
  • Информация
    Посетители, находящиеся в группе Гости, не могут оставлять комментарии к данной публикации.