вход на сайт

Имя пользователя :
Пароль :

Восстановление пароля Регистрация
(2011) Stargazery / Eye On The Sky (Heavy Metal) [FLAC (image+.cue), lossless]
Рейтинг:
(голосов: 1)



[img]{THEME}/images/logopost.png[/img]





Альбом: Eye On The Sky
Тип альбома: Студийный
Год выпуска: 2011
Страна: Финляндия
Жанр: HeavyMetal
Формат: FLAC (image+.cue)
Битрейт: lossless
Log-файл: Присутствует
Продолжительность: 00:43:53


▼01.Dying[03:57]
02.Puppet On A String[05:29]
03.I Am The Night[04:07]
04.Eye On The Sky[03:47]
05.How Many Miles[03:28]
06.Judah (The Lion)[03:16]
07.S.O.S.[04:55]
08.Every Day I Dream Of You[03:33]
09.Jester Of Kings[04:26]
10.Headless Cross (Black Sabbath cover)[06:50]


"Отчет EAC" ▼TextЛог создания рипа
Exact Audio Copy V1.0 beta 1 from 15. November 2010
EAC extraction logfile from 12. April 2011, 17:33
Stargazery / Eye On The Sky
Used drive : Optiarc DVD RW AD-5260S Adapter: 0 ID: 5
Read mode : Secure
Utilize accurate stream : Yes
Defeat audio cache : Yes
Make use of C2 pointers : No
Read offset correction : 48
Overread into Lead-In and Lead-Out : No
Fill up missing offset samples with silence : Yes
Delete leading and trailing silent blocks : No
Null samples used in CRC calculations : Yes
Used interface : Native Win32 interface for Win NT & 2000
Gap handling : Appended to previous track
Used output format : User Defined Encoder
Selected bitrate : 320 kBit/s
Quality : High
Add ID3 tag : No
Command line compressor : C:Program Files (x86)Exact Audio CopyFlacflac.exe
Additional command line options : -V -8 -T "artist=%a" -T "title=%t" -T "album=%g" -T "date=%y" -T "tracknumber=%n" -T "genre=%m" %s
TOC of the extracted CD
Track | Start | Length | Start sector | End sector
---------------------------------------------------------
1 | 0:00.00 | 3:57.70 | 0 | 17844
2 | 3:57.70 | 5:29.16 | 17845 | 42535
3 | 9:27.11 | 4:07.25 | 42536 | 61085
4 | 13:34.36 | 3:47.03 | 61086 | 78113
5 | 17:21.39 | 3:28.43 | 78114 | 93756
6 | 20:50.07 | 3:16.71 | 93757 | 108527
7 | 24:07.03 | 4:55.03 | 108528 | 130655
8 | 29:02.06 | 3:33.66 | 130656 | 146696
9 | 32:35.72 | 4:26.70 | 146697 | 166716
10 | 37:02.67 | 6:50.46 | 166717 | 197512
Track 9
Filename C:EACripsStargazery - 2011 - Eye On The Sky9 - S.O.S..wav
Peak level 96.6 %
Extraction speed 4.0 X
Track quality 100.0 %
Test CRC D7AD2A1B
Copy CRC D7AD2A1B
Track not present in AccurateRip database
Copy OK
None of the tracks are present in the AccurateRip database
No errors occurred
End of status report
==== Log checksum 2BCB64F1C424C20B53E40FBDC737B6F4CA77C434D7BB84D355CE803A8BEB2950 ====
------------------------------------------------------------
Exact Audio Copy V1.0 beta 1 from 15. November 2010
EAC extraction logfile from 12. April 2011, 18:00
Stargazery / Eye On The Sky
Used drive : Optiarc DVD RW AD-5260S Adapter: 0 ID: 5
Read mode : Secure
Utilize accurate stream : Yes
Defeat audio cache : Yes
Make use of C2 pointers : No
Read offset correction : 48
Overread into Lead-In and Lead-Out : No
Fill up missing offset samples with silence : Yes
Delete leading and trailing silent blocks : No
Null samples used in CRC calculations : Yes
Used interface : Native Win32 interface for Win NT & 2000
Gap handling : Appended to previous track
Used output format : User Defined Encoder
Selected bitrate : 320 kBit/s
Quality : High
Add ID3 tag : No
Command line compressor : C:Program Files (x86)Exact Audio CopyFlacflac.exe
Additional command line options : -V -8 -T "artist=%a" -T "title=%t" -T "album=%g" -T "date=%y" -T "tracknumber=%n" -T "genre=%m" %s
TOC of the extracted CD
Track | Start | Length | Start sector | End sector
---------------------------------------------------------
1 | 0:00.00 | 3:57.70 | 0 | 17844
2 | 3:57.70 | 5:29.16 | 17845 | 42535
3 | 9:27.11 | 4:07.25 | 42536 | 61085
4 | 13:34.36 | 3:47.03 | 61086 | 78113
5 | 17:21.39 | 3:28.43 | 78114 | 93756
6 | 20:50.07 | 3:16.71 | 93757 | 108527
7 | 24:07.03 | 4:55.03 | 108528 | 130655
8 | 29:02.06 | 3:33.66 | 130656 | 146696
9 | 32:35.72 | 4:26.70 | 146697 | 166716
10 | 37:02.67 | 6:50.
454fb8c49e2aae61816334d2b2a5ae91bdf1cf61(2011) Stargazery / Eye On The Sky (Heavy Metal) [FLAC (image+.cue), lossless] (2011) Stargazery / Eye On The Sky (Heavy Metal) [FLAC (image+.cue), lossless] " />

Аплоадер: Админ, дата: 12-11-2011, 20:10, торрент скачан: 359 раз

Понравилась раздача? Посмотрите эти:
  • (2013) Paul McCartney / New (Deluxe Edition) (Rock) [FLAC (image,+.cue), lo ...
  • (2010) Zaz / Zaz (Nu jazz, Chanson, Soul) [FLAC (tracks+.cue), lossless]
  • (2011) The Prodigy / Worlds On Fire (Big Beat, Rave) [FLAC (image+.cue), lo ...
  • (2011) Disturbed / The Lost Children (Alternative Metal) [FLAC (tracks+.cue ...
  • (Дискография, 1988-2011) Kingdom Come (Hard&Heavy,Glam Metal) [FLAC (image+ ...
  • (2011) Виктория - победительница / Victorious (OST) [FLAC (tracks+.cue), lo ...
  • (2011) B.B. King / Icon (Blues) [FLAC (tracks+.cue), lossless]
  • (2012) Yiruma / Stay In Memory (New Age, Instrumental, Neoclassical, Piano) ...
  • (2011) Linkin Park / Iridescent (Alternative Rock) [FLAC(image+.cue), lossl ...
  • (2011) Ляпис Трубецкой / Веселые картинки (Rock) [FLAC (tracks+.cue), lossl ...
  • (2011) Rammstein / Mein Land (Neue Deutsche Harte, Industrial, Tanz-Metal) ...
  • (2011) Revocation / Chaos of Forms (Death Metal/Thrash) [FLAC (tracks+.cue) ...
  • (2011) Дельфин / Существо (Alternative|Experimental) [FLAC (tracks+.cue), l ...
  • (2011) Ленинград / Хна (Rock) [FLAC (tracks+.cue), lossless]
  • (2011) SeeS / The enD (Progressive/Math Metal) [FLAC (tracks+.cue), lossles ...
  • (2011) Volumes / Via (Progressive Metalcore/Math Metal) [FLAC (image+.cue), ...
  • (2012) Our Lady Peace / Curve (Alternative/Rock) [FLAC (tracks+.cue), lossl ...
  • (2011) The Browning / Burn This World (Deathcore/Electronic) [FLAC (tracks+ ...
  • (2012) KoRn feat. Skrillex / Chaos Lives In Everything (UK Promo) (Nu-metal ...
  • (2011) The Soulless / Isolated (Melodic Death Metal/Metalcore) [FLAC (track ...
  • (2012) Nine Lashes / World We View (Alt.Rock/Alt.Metal/Christian) [FLAC (tr ...
  • (2012) Game Over / For Humanity (Thrash Metal) [FLAC (image+.cue), lossless ...
  • (2011) Phinehas / Thegodmachine (Metalcore) [FLAC (tracks+.cue), lossless]
  • (2011) Ink Stained Promises / Relations. (Metalcore, Hardcore) [FLAC (track ...
  • (2011) Skindred / Union Black (Alternative Metal, Ragga-Metal) [FLAC (track ...
  • Информация
    Посетители, находящиеся в группе Гости, не могут оставлять комментарии к данной публикации.