вход на сайт

Имя пользователя :
Пароль :

Восстановление пароля Регистрация
(1986) Dark Angel / Darkness Descends (Thrash Metal) [FLAC (image+.cue), lossless]
Рейтинг:
(голосов: 1)



[img]{THEME}/images/logopost.png[/img]





Альбом: Darkness Descends
Тип альбома: Студийный
Год выпуска: 1986
Страна: США
Жанр: Thrash Metal
Формат: FLAC (image+.cue)
Битрейт: lossless
Продолжительность: 00:35:22



01.Darkness Descends[05:53]
02.The Burning Of Sodom[03:19]
03.Hunger Of The Undead[04:19]
04.Merciless Death[04:08]
05.Death Is Certain (Life Is Not)[04:18]
06.Black Prophecies[08:34]
07.Perish In Flames[04:52]


"Лог EAC" ▼TextExact Audio Copy V0.99 prebeta 5 from 4. May 2009
Отчёт EAC об извлечении, выполненном 6. сентября 2011, 10:37
Dark Angel / Darkness Descends [88561-8114-2]
Дисковод: Optiarc DVD RW AD-7200A Adapter: 1 ID: 0
Режим чтения : Достоверность
Использование точного потока : Да
Отключение кэша аудио : Да
Использование указателей C2 : Нет
Коррекция смещения при чтении : 48
Способность читать области Lead-in и Lead-out : Нет
Заполнение пропущенных сэмплов тишиной : Да
Удаление блоков с тишиной в начале и конце : Нет
При вычислениях CRC использовались нулевые сэмплы : Да
Интерфейс : Встроенный Win32-интерфейс для Win NT/2000
Выходной формат : Пользовательский кодировщик
Выбранный битрейт : 128 kBit/s
Качество : Высокий
Добавление ID3-тэга : Нет
Утилита сжатия : C:Program FilesExact Audio CopyFlacflac.exe
Дополнительные параметры : -8 -V -T "artist=%a" -T "title=%t" -T "album=%g" -T "date=%y" -T "tracknumber=%n" -T "genre=%m" -T "comment=EAC
TOC извлечённого CD
Трек | Старт | Длительность | Начальный сектор | Конечный сектор
---------------------------------------------------------------------
1 | 0:00.00 | 5:52.63 | 0 | 26462
2 | 5:52.63 | 3:18.62 | 26463 | 41374
3 | 9:11.50 | 4:18.43 | 41375 | 60767
4 | 13:30.18 | 4:07.60 | 60768 | 79352
5 | 17:38.03 | 4:18.30 | 79353 | 98732
6 | 21:56.33 | 8:33.67 | 98733 | 137274
7 | 30:30.25 | 4:52.03 | 137275 | 159177
Характеристики диапазона извлечения и сообщения об ошибках
Выбранный диапазон
Имя файла Y:МузыкаDark Angel1986 Darkness DescendsDark Angel - Darkness Descends [88561-8114-2].wav
Пиковый уровень 84.1 %
Качество диапазона 100.0 %
CRC теста E49B67CD
CRC копии E49B67CD
Копирование... OK
Ошибок не произошло
AccurateRip: сводка
Трек 1 точное извлечение (доверие 7) [A682D02C]
Трек 2 точное извлечение (доверие 7) [982E84C9]
Трек&nb
9849b3eeb5e918d794e3f829e3766ab235a99ce3(1986) Dark Angel / Darkness Descends (Thrash Metal) [FLAC (image+.cue), lossless] (1986) Dark Angel / Darkness Descends (Thrash Metal) [FLAC (image+.cue), lossless] " />

Аплоадер: Админ, дата: 1-11-2011, 15:42, торрент скачан: 359 раз

Понравилась раздача? Посмотрите эти:
  • (1993) Coverdale & Page / Coverdale & Page (EMI Holland)(Hard Rock) [FLAC ( ...
  • (2000) a-ha / Minor Earth | Major Sky (Alternative Rock, Synth-pop ) [FLAC ...
  • (2013) Loc-Dog & Tony VA / Все знают всё (Rap, Hip-Hop) [FLAC (Tracks+.Cue ...
  • (2013) Pinnick Gales Pridgen / Pinnick Gales Pridgen (Hard Rock, Heavy Blue ...
  • (2012) Рем Дигга / Черника (Rap) [FLAC (tracks+.cue), lossless]
  • (2010) Schiller / Breathless (Electronic) [FLAC (image+.cue), lossless]
  • (2010) БИ-2 / О чём говорят мужчины (Pop-Rock) [FLAC (image + .cue), lossle ...
  • (2011) ГРОТ / О Пути По Встречной (Rap) [FLAC (tracks+.cue), lossless]
  • (1997) Jazz Cafe / Simple Pleasures (Jazz, instrumental) [FLAC (image+.сue ...
  • (Дискография, 2006-2011) Светлана Копылова (Православная песня) [FLAC (imag ...
  • (2012) The Rasmus / The Rasmus (Alternative Rock/Melodic Rock) [FLAC (track ...
  • (1993) Mireille Mathieu / Chante Piaf (Pop) [FLAC (tracks+.cue), lossless]
  • (2012) The Blues Overdrive / The Blues Overdrive (Blues-Rock) [FLAC (image+ ...
  • (2012) Триада / Мои глаза открыты (Rap) [FLAC (tracks+.cue), lossless]
  • (2012) KREC / Молча проще (Rap) [FLAC (tracks+.cue), lossless]
  • (2012) Rammstein / Mein Herz brennt (Industrial, Tanz-Metal) [FLAC (tracks ...
  • (2001) Лучшие звуки природы (Звуки природы) [FLAC (image+.cue), lossless]
  • (2011) Ассаи / ОМ (Rap) [FLAC (tracks+.cue), lossless]
  • (2012) Ария / Live In Studio (Heavy Metal) [FLAC (image+.сue), lossless]
  • (2008) Nirvana / The Best Of (Grunge, Alternative) [FLAC (image+.сue), loss ...
  • Информация
    Посетители, находящиеся в группе Гости, не могут оставлять комментарии к данной публикации.