вход на сайт

Имя пользователя :
Пароль :

Восстановление пароля Регистрация
(2008) Scars on Broadway / Scars on Broadway (Japan Edition) (Alt.Metal/Experemental) [FLAC (tracks+.cue)lossless]
Рейтинг:
(голосов: 1)



[img]{THEME}/images/logopost.png[/img]





Альбом: Scars on Broadway (Japan Edition)
Тип альбома: Студийный
Год выпуска: 2008
Страна: США
Жанр: Alt.Metal/Experemental
Формат: FLAC (tracks+.cue)
Битрейт: lossless
Продолжительность: 00:48:49



01.Serious[02:07]
02.Funny[02:55]
03.Exploding / Reloading[02:15]
04.Stoner Hate[02:00]
05.Insane[03:07]
06.World Long Gone[03:16]
07.Kill Each Other / Live Forever[03:05]
08.Babylon[03:56]
09.Chemicals[03:13]
10.Enemy[03:03]
11.Universe[04:15]
12.3005[02:54]
13.Cute Machines[03:03]
14.Whoring Streets[03:01]
15.They Say[02:57]
16.Hungry Ghost[03:36]


"Лог EAC" ▼Exact Audio Copy V0.99 prebeta 5 from 4. May 2009
EAC extraction logfile from 21. October 2010, 17:05
Scars on Broadway / Scars on Broadway
Used drive: ASUSDRW-1814BL Adapter: 1ID: 0
Read mode : Secure
Utilize accurate stream : Yes
Defeat audio cache: Yes
Make use of C2 pointers : No
Read offset correction: 6
Overread into Lead-In and Lead-Out: No
Fill up missing offset samples with silence : Yes
Delete leading and trailing silent blocks : No
Null samples used in CRC calculations : Yes
Used interface: Native Win32 interface for Win NT & 2000
Gap handling: Appended to previous track
Used output format: User Defined Encoder
Selected bitrate: 320 kBit/s
Quality : High
Add ID3 tag : No
Command line compressor : C:Program FilesExact Audio CopyFlacflac.exe
Additional command line options : -V -8 -T "artist=%a" -T "title=%t" -T "album=%g" -T "date=%y" -T "tracknumber=%n" -T "genre=%m" %s
TOC of the extracted CD
Track | Start|Length| Start sector | End sector
---------------------------------------------------------
1|0:00.00 |2:07.38 | 0| 9562
2|2:07.38 |2:55.31 |9563|22718
3|5:02.69 |2:15.27 | 22719|32870
4|7:18.21 |2:00.62 | 32871|41932
5|9:19.08 |3:07.28 | 41933|
2be248d0f03b006beb252e6602d0eae6c4f41fe4(2008) Scars on Broadway / Scars on Broadway (Japan Edition) (Alt.Metal/Experemental) [FLAC (tracks+.cue)lossless] (2008) Scars on Broadway / Scars on Broadway (Japan Edition) (Alt.Metal/Experemental) [FLAC (tracks+.cue)lossless] " />

Аплоадер: Админ, дата: 25-09-2011, 22:34, торрент скачан: 359 раз

Понравилась раздача? Посмотрите эти:
  • (2007) JONATHAN DAVIS (of Korn) / Alone I Play (Nu-Metal, Live) [FLAC(trac ...
  • (2008) ANDREA BOCELLI / Incanto (classical) [FLAC (tracks+.cue) lossless]
  • (2007) GORILLAZ / D-Sides [Japan Edition] (Hip-Hop) [FLAC (image+cue), loss ...
  • (2009) SHAKIRA / She Wolf (US Edition) (Pop) [Flac (tracks+.cue), lossless] ...
  • (2010)Scorpions/Sting In The Tail [FLAC (tracks+cue), lossless]
  • (2010) ПИKНИК / Театр Абсурда (Art-Rock) [FLAC (tracks+.cue), lossless]
  • (2010) Deftones / Diamond Eyes (Nu metal / Alternative) [FLAC, (tracks+ cu ...
  • (2008) Pink / Funhouse (Pop) [FLAC (tracks) lossless]
  • (2010) Eminem / Recovery (Rap / Hip-Hop) [FLAC (tracks+.cue) lossless]
  • (2010) Michael Jackson - Michael (Pop) [FLAC, (tracks+.cue), lossless]
  • (2009) Radiohead / Hail To The Thief [Collectors Edition: 2-nd CD] (Alterna ...
  • (2010) Ne-Yo / Libra Scale (Japanese Edition) (RnB) [FLAC (tracks+.cue) los ...
  • (2010) Rihanna / Loud (R&B) [FLAC (tracks+.cue), lossless]
  • (2003) DJ Zinc / Faster (DnB, Breaks) [ FLAC (tracks+.cue), lossless]
  • (2011) Electric Universe / Higher Modes (Psytrance, Full On) [FLAC (tracks+ ...
  • (Дискография, 2003-2010) Scars on Broadway (Alt.metal, Experimental) [MP3, ...
  • Scars on Broadway / Area4 Festival, Ludinghausen, Germany [31.08.2008, Alt. ...
  • (2009) Exivious (Ex. Cynic) / Exivious (Progressive Metal/Death Metal) [FLA ...
  • (2011) The Soulless / Isolated (Melodic Death Metal/Metalcore) [FLAC (track ...
  • (2011) Skindred / Union Black (Alternative Metal, Ragga-Metal) [FLAC (track ...
  • Информация
    Посетители, находящиеся в группе Гости, не могут оставлять комментарии к данной публикации.