вход на сайт

Имя пользователя :
Пароль :

Восстановление пароля Регистрация
(2010) [AMATORY] / Инстинкт обречённых (Nu Metal) [FLAC (tracks), lossless]
Рейтинг:
(голосов: 1)



[img]{THEME}/images/logopost.png[/img]



Исполнитель: [AMATORY]
Альбом: Инстинкт Обреченных
Тип альбома: Студийный
Год выпуска: 2010
Жанр: Nu Metal
Формат: FLAC (tracks)
Битрейт: lossless
Продолжительность: 00:44:11

Tреклист:

01. Сквозь Закрытые Веки 03:55
02. Стеклянные Люди 03:32
03. Империя Зла 04:06
04. Белый Шум 03:40
05. Инферно 03:40
06. F20 03:39
07. Молчи! 03:46
08. Горизонты снов 04:05
09. Один Час До Конца Света 03:08
10. Ответ знает 02:08
11. Багровый Рассвет 03:31
12. Я Слышу Голоса Миллионов 04:56

"Отчет EAC" ▼TextEAC extraction logfile from 27. October 2010, 10:06 for CD
Amatory / Инстинкт обречённых

Used drive : ATAPI iHAS124 Y Adapter: 0 ID: 1
Read mode : Secure with NO C2, accurate stream, disable cache
Read offset correction : 48
Overread into Lead-In and Lead-Out : No

Used output format : C:Program FilesExact Audio CopyFLACflac.exe (LAME MP3 Encoder)
320 kBit/s
Additional command line options : -8 -V -T "ARTIST=%a" -T "TITLE=%t" -T "ALBUM=%g" -T "DATE=%y" -T "TRACKNUMBER=%n" -T "GENRE=%m" -T "COMMENT=EAC FLAC -8" %s

Other options :
Fill up missing offset samples with silence : Yes
Delete leading and trailing silent blocks : No
Native Win32 interface for Win NT & 2000


Track 1
Filename C:UsersmrgrekDesktopflac amatory1 - Сквозь Закрытые Веки.wav

Pre-gap length 0:00:02.00

Peak level 98.8 %
Track quality 100.0 %
Test CRC DCFEDC14
Copy CRC DCFEDC14
Copy OK

Track 2
Filename C:UsersmrgrekDesktopflac amatory2 - Стеклянные Люди.wav

Peak level 98.8 %
Track quality 100.0 %
Test CRC 32DB9691
Copy CRC 32DB9691
Copy OK

Track 3
Filename C:UsersmrgrekDesktopflac amatory3 - Империя Зла.wav

Peak level 98.8 %
Track quality 100.0 %
Test CRC B9D086F3
Copy CRC B9D086F3
Copy OK

Track 4
Filename C:UsersmrgrekDesktopflac amatory4 - Белый Шум.wav

Peak level 98.8 %
Track quality 100.0 %
Test CRC D4979027
Copy CRC D4979027
Copy OK

Track 5
Filename C:UsersmrgrekDesktopflac amatory5 - Инферно.wav

Peak level 98.8 %
Track quality 100.0 %
Test CRC 638CFDA7
Copy CRC 638CFDA7
Copy OK

Track 6
Filename C:UsersmrgrekDesktopflac amatory6 - F20.wav

Peak level 98.8 %
Track quality 100.0 %
Test CRC AE230380
Copy CRC AE230380
Copy OK

Track 7
Filename C:UsersmrgrekDesktopflac amatory7 - Молчи!.wav

Peak level 98.8 %
Track quality 100.0 %
Test CRC 9CEBFB2A
Copy CRC 9CEBFB2A
Copy OK

Track 8
Filename C:UsersmrgrekDesktopflac amatory8 - Горизонты Снов.wav

Peak level 98.8 %
Track quality 100.0 %
Test CRC 0B9E12C7
Copy CRC 0B9E12C7
Copy OK
fc60edf85fef1b0a3737dc253c2a4932384353b8(2010) [AMATORY] / Инстинкт обречённых (Nu Metal) [FLAC (tracks), lossless] (2010) [AMATORY] / Инстинкт обречённых (Nu Metal) [FLAC (tracks), lossless] " />

Аплоадер: Админ, дата: 12-07-2011, 11:52, торрент скачан: 359 раз

Понравилась раздача? Посмотрите эти:
  • (2013) Girls Generation (SNSD) - Galaxy Supernova / Galaxy Supernova (KPop) ...
  • (2012, Сборник) VA / Вечерняя Коллекция (Звуки природы) (Relax) [FLAC (trac ...
  • (Jazz) Ray Charles — The Very Best Of Ray Charles - 2000, FLAC (tracks), lo ...
  • (Soundtrack,1999) Fight Club / Бойцовский клуб - The Dust Brothers [FLAC (t ...
  • (1999) Red Hot Chili Peppers - Californication (Alternative rock, Funk) [FL ...
  • (2009) The Black Eyed Peas / The E.N.D. (The Energy Never Dies) (Target Del ...
  • (2001) GORILLAZ / Gorillaz (US Edition) (Hip-Hop) [FLAC (image+cue), lossle ...
  • (2010 , OST) Пипец / Kick Ass (OST) [FLAC (tracks+.cue) lossless]
  • (2008) Karunesh /Enlightenment (New Age) [FLAC (image+.cue), lossless]
  • (2011) Orjan Nilsen / In My Opinion (Trance) [FLAC (tracks+.cue), lossless] ...
  • (2002) PPK (ППК) / ReLoad. Russian Trance (Trance) [FLAC (tracks+cue), loss ...
  • (2010, сборник) VA / CDeelder Box (Swing) [FLAC (tracks+.cue), lossless]
  • (1988) David Grisman Quintet feat. Svend Asmussen / Svingin With Svend (Jaz ...
  • (2009) Timbaland / Shock Value II (Hip-Hop / RnB) [FLAC (tracks+.cue), loss ...
  • (2012) High Contrast / The Agony & The Ecstasy (Drum and Bass) [FLAC (track ...
  • (2006) The Rasmus / Shot (Single) (Alternative Rock) [FLAC (tracks+.cue), l ...
  • (2008) Miley Cyrus - Breakout (Platinum Edition) (Pop) [FLAC (tracks+.cue), ...
  • (2009) Miley Cyrus / The Time of Our Lives (Pop) [FLAC (tracks+.cue), lossl ...
  • (2011) Linkin Park / Iridescent (Alternative Rock) [FLAC(image+.cue), lossl ...
  • (Дискография, 2010-2011) Chelsea Grin (Deathcore) [FLAC (tracks+.cue), loss ...
  • (1999) Necrophagist / Onset Of Putrefaction (Technical Death Metal) [FLAC ( ...
  • (2011) This Will Destroy You / Tunnel Blanket (Post Rock) [FLAC (tracks+.cu ...
  • (2004) Дельфин / Запись концерта 19.11.04 (Alternative|Experimental) [FLAC ...
  • (Дискография, 2002 - 2012) Rodrigo y Gabriela (Acoustic, Flamenco, Classica ...
  • (2011) Ink Stained Promises / Relations. (Metalcore, Hardcore) [FLAC (track ...
  • Информация
    Посетители, находящиеся в группе Гости, не могут оставлять комментарии к данной публикации.