вход на сайт

Имя пользователя :
Пароль :

Восстановление пароля Регистрация
(2010) Zdob si Zdub / Белое вино / Красное вино (folk rock, folk punk, hardcore) [FLAC (image+.cue), lossless]
Рейтинг:
(голосов: 1)



[img]{THEME}/images/logopost.png[/img]



Исполнитель: Zdob si zdub
Альбом: Белое вино / Красное вино
Тип альбома: Студийный
Год выпуска: 2010
Жанр: folk rock, folk punk, hardcore
Формат: FLAC (image+.cue)
Битрейт: lossless
Продолжительность: 00:58:35

Tреклист:
[02:48] 01. Zdob si Zdub - Sтоп, мафия! feat. Сергей Михалок
[04:01] 02. Zdob si Zdub - Гооол!
[03:30] 03. Zdob si Zdub - Nevesta
[04:11] 04. Zdob si Zdub - Молдавский хардкор
[03:25] 05. Zdob si Zdub - Белое вино/Красное вино
[03:43] 06. Zdob si Zdub - Невероятно грустная история, или Телега
[02:35] 07. Zdob si Zdub - Костюмчик feat. Эммануил Виторган
[03:23] 08. Zdob si Zdub - На речке, на речке
[03:47] 09. Zdob si Zdub - DJ Василий
[03:35] 10. Zdob si Zdub - Хуторянин
[03:21] 11. Zdob si Zdub - Дунайская
[03:46] 12. Zdob si Zdub - Космический хоровод feat. Ясный день
[04:52] 13. Zdob si Zdub - Пельменная
[04:21] 14. Zdob si Zdub - Моя цыганская
[03:35] 15. Zdob si Zdub - DJ Василь, украинская версия (бонус)
[03:36] 16. Zdob si Zdub - Белое вино/Красное вино, remix by DJ Brian (бонус)

"Отчет EAC" ▼TextExact Audio Copy V0.99 prebeta 5 from 4. May 2009
EAC extraction logfile from 28. October 2010, 3:44
Zdob si Zdub / Белое вино / Красное вино
Used drive : PIONEER DVD-RW DVR-212 Adapter: 8 ID: 0
Read mode : Secure
Utilize accurate stream : Yes
Defeat audio cache : Yes
Make use of C2 pointers : No
Read offset correction : 48
Overread into Lead-In and Lead-Out : No
Fill up missing offset samples with silence : Yes
Delete leading and trailing silent blocks : No
Null samples used in CRC calculations : Yes
Used interface : Installed external ASPI interface
Used output format : Internal WAV Routines
Sample format : 44.100 Hz; 16 Bit; Stereo
TOC of the extracted CD
Track | Start | Length | Start sector | End sector
---------------------------------------------------------
1 | 0:00.00 | 2:48.05 | 0 | 12604
2 | 2:48.05 | 4:01.25 | 12605 | 30704
3 | 6:49.30 | 3:30.68 | 30705 | 46522
4 | 10:20.23 | 4:11.05 | 46523 | 65352
5 | 14:31.28 | 3:25.09 | 65353 | 80736
6 | 17:56.37 | 3:43.70 | 80737 | 97531
7 | 21:40.32 | 2:35.18 | 97532 | 109174
8 | 24:15.50 | 3:23.11 | 109175 | 124410
9 | 27:38.61 | 3:47.06 | 124411 | 141441
10 | 31:25.67 | 3:35.04 | 141442 | 157570
11 | 35:00.71 | 3:21.71 | 157571 | 172716
12 | 38:22.67 | 3:46.63 | 172717 | 189729
13 | 42:09.55 | 4:52.42 | 189730 | 211671
14 | 47:02.22 | 4:21.14 |&n
c4a18d55d5f51766336b9d2d48a9ef41e51bd833(2010) Zdob si Zdub / Белое вино / Красное вино (folk rock, folk punk, hardcore) [FLAC (image+.cue), lossless] (2010) Zdob si Zdub / Белое вино / Красное вино (folk rock, folk punk, hardcore) [FLAC (image+.cue), lossless] " />

Аплоадер: Админ, дата: 4-06-2011, 13:32, торрент скачан: 359 раз

Понравилась раздача? Посмотрите эти:
  • (1993) Mick Jagger / Wandring Spirit (Rock) [FLAC(image+.cue), lossless]
  • (2011) Вячеслав Бутусов и гр. Ю-Питер / ДОстояние РЕспублики (Rock) [MP3, ...
  • (2010) VA / Соль - Наши музыкальные традиции (Rock) [MP3 320CBR]
  • (Дискография) Zdob si Zdub (фолк-рок, фолк-панк, хардкор) [mp3, 128-320/CBR ...
  • (2010) Сергей Трофимов (Трофим) / Всё не важно (Шансон) [FLAC(image+.cue), ...
  • (2010) Ассаи / Лифт (Rap) [FLAC(image+.cue), lossless]
  • (2008) The Magic Of Nomads / Bulbul Zaman (folk-ethnic / smooth jazz / inst ...
  • (2010) Алиса / Ъ (The Hard Sign) (Hard Rock) [WavPack (iso.wv (image+.cue)) ...
  • (2007) Константин Никольский / Иллюзии (Rock) [APE (image + .cue), lossless ...
  • (2008) Юрий Наумов / Рок как будто Блюз (Blues) [FLAC (Image+.cue), lossles ...
  • (2009) D-Man 55 / 7.62 Б-30 (Rap) [FLAC (image+.cue) lossless]
  • (2010) 2Pac / Greatest Hits (Rap & Hip Hop) [APE (image+.cue), lossless]
  • (2000,2000,2001) КиноПробы 1, 2, Gold (Compilation/Rock) [MP3 320CBR]
  • (Дискография) Иван Купала (Folk / Ethnic / Electronic) [MP3, 320 / CBR]
  • (2010) Кукрыниксы / Всадники Света (Punk Rock) [FLAC (tracks+.cue), lossles ...
  • (2011) Yanni / Truth Of Touch (New Age) [FLAC (image+ .cue),lossless]
  • (2011) Стас Михайлов / Только ты (Шансон) [Flac(image+.cue)Lossless]
  • (2010) БИ-2 / БИ-2 и Симфонический Оркестр МВД России (Подарочное издание, ...
  • (2012) Crippled Black Phoenix / (Mankind) The Crafty Ape (Alternative/Indie ...
  • (2011) Lou Reed & Metallica / Lulu (Heavy Metal, Hard Rock) [FLAC (image+.c ...
  • Информация
    Посетители, находящиеся в группе Гости, не могут оставлять комментарии к данной публикации.