вход на сайт

Имя пользователя :
Пароль :

Восстановление пароля Регистрация
(Дискография 2003-2008) Simple Plan (Pop-Punk) [FLAC (tracks + .cue), lossless]
Рейтинг:
(голосов: 1)



[img]{THEME}/images/logopost.png[/img]





Дискография
Страна: Канада
Жанр: Pop-Punk
Формат: FLAC (tracks + .cue)
Битрейт: Lossless
Продолжительность: 03:20:08


▼Simple Plan — канадская панк-рок группа образовавшаяся в Монреале, провинции Квебек. На данный момент группа выпустила 3 альбома: No Pads, No Helmets... Just Balls (2002) , Still Not Getting Any... (2004), Simple Plan (2008); а также 2 концертных альбома: Live in Japan 2002 (2003) и MTV Hard Rock Live (2005). Все пятеро участников группы франко-канадцы, родились в провинции Квебек.

Состав группы:

Джефф Стинко (Jeff Stinco) — соло-гитара;
Дэвид Дезрозиерc (David Desrosiers) — бас-гитара, бэк-вокал;
Пьер Бувье (Pierre Bouvier) — вокал;
Себаcтьян Лефебр (Sebastien Lefebvre) — гитара, бэк-вокал;
Чарльз Комо (Charles Como) — барабаны.

2003 - No Pads, No Helmets...Just Balls (UK Edition)



• Тип альбома: Студийный
• Год выпуска: 2003
• Формат: FLAC (tracks + .cue)
• Битрейт: lossless
• Продолжительность: 00:46:44

Tреклист:
01.Id Do Anything[03:17]
02.The Worst Day Ever[03:27]
03.You Dont Mean Anything[02:28]
04.Im Just A Kid[03:18]
05.When Im With You[02:37]
06.Meet You There[04:13]
07.Addicted[03:52]
08.My Alien[03:08]
09.God Must Hate Me[02:44]
10.I Wont Be There[03:09]
11.One Day[03:14]
12.Perfect[04:39]
13.Grow Up[02:33]
14.American Jesus [Live][04:00]


EAC ▼TextExact Audio Copy V0.99 prebeta 5 from 4. May 2009

EAC extraction logfile from 8. November 2009, 17:35

Simple Plan / No Pads, No Helmets... Just Balls

Used drive : TSSTcorpDVD+-RW TS-H653B Adapter: 3 ID: 0

Read mode : Secure
Utilize accurate stream : Yes
Defeat audio cache : Yes
Make use of C2 pointers : No

Read offset correction : 6
Overread into Lead-In and Lead-Out : No
Fill up missing offset samples with silence : Yes
Delete leading and trailing silent blocks : No
Null samples used in CRC calculations : Yes
Used interface : Installed external ASPI interface
Gap handling : Appended to previous track

Used output format : User Defined Encoder
Selected bitrate : 1024 kBit/s
Quality : High
Add ID3 tag : No
Command line compressor : C:Program Files (x86)Exact Audio CopyFLAC lac.exe
Additional command line options : -V -8 -T "artist=%a" -T "title=%t" -T "album=%g" -T "date=%y" -T "tracknumber=%n" -T "genre=%m" %s


TOC of the extracted CD

Track | Start | Length | Start sector | End sector
---------------------------------------------------------
1 | 0:00.00 | 3:17.02 | 0 | 14776
2 | 3:17.02 | 3:27.10 | 14777 | 30311
3 | 6:44.12 | 2:28.45 | 30312 | 41456
4 | 9:12.57 | 3:18.03 | 41457 | 56309
&nbs
90c64180718fc6378070852483c0048b5035ff44(Дискография 2003-2008) Simple Plan (Pop-Punk) [FLAC (tracks + .cue), lossless] (Дискография 2003-2008) Simple Plan (Pop-Punk) [FLAC (tracks + .cue), lossless] " />

Аплоадер: Админ, дата: 8-04-2011, 23:29, торрент скачан: 359 раз

Понравилась раздача? Посмотрите эти:
  • (Дискография, 2006-2012) Angels&Airwaves (AVA) (Alternative) [FLAC(tracks+. ...
  • (2013) Love And Death / Between Here & Lost (Nu Metal) [FLAC (tracks+.cue) ...
  • (Дискография, 1999-2011) Simple Plan (Pop-Punk) [MP3, 128-320 kbps/CBR]
  • (2010) Вячеслав Бутусов и Ю-Питер / Цветы и Тернии (Rock) [FLAC (tracks + . ...
  • (2010) Zaz / Zaz (Nu jazz, Chanson, Soul) [FLAC (tracks+.cue), lossless]
  • (2011) Adele / 21 (Jazz, Lounge, Easy Listening) [FLAC (tracks + .cue), los ...
  • (Дискография 2003-2005) Skalpel (Nu Jazz) [FLAC (tracks+.cue), lossless]
  • (2011) Daughtry / Break the Spell (Deluxe Edition) (Alt. Rock / Modern Rock ...
  • (2002) PPK (ППК) / ReLoad. Russian Trance (Trance) [FLAC (tracks+cue), loss ...
  • (2011) Виктория - победительница / Victorious (OST) [FLAC (tracks+.cue), lo ...
  • (2011) B.B. King / Icon (Blues) [FLAC (tracks+.cue), lossless]
  • (Дискография, 1998-2005) Jeanette Alexander (Instrumental, New Age, Piano S ...
  • (2011) Ляпис Трубецкой / Веселые картинки (Rock) [FLAC (tracks+.cue), lossl ...
  • (1989) Galway - Scimone - I Solisti Veneti / Vivaldi - 6 Concertos (Classic ...
  • (2011) Gandharva / Lord of the Universe (New Age, Classical, Erhu) [FLAC (t ...
  • (2011) Scorpions / Comeblack (Hard Rock) [FLAC (tracks+.cue)lossless]
  • (2011) Дельфин / Существо (Alternative|Experimental) [FLAC (tracks+.cue), l ...
  • (2011) Ленинград / Хна (Rock) [FLAC (tracks+.cue), lossless]
  • (2011) SeeS / The enD (Progressive/Math Metal) [FLAC (tracks+.cue), lossles ...
  • (2011) Downhere / On The Altar Of Love (Alternative Rock/Christian Rock) [F ...
  • (2012) Our Lady Peace / Curve (Alternative/Rock) [FLAC (tracks+.cue), lossl ...
  • (2012) KoRn feat. Skrillex / Chaos Lives In Everything (UK Promo) (Nu-metal ...
  • (2012) Nine Lashes / World We View (Alt.Rock/Alt.Metal/Christian) [FLAC (tr ...
  • (2011) Phinehas / Thegodmachine (Metalcore) [FLAC (tracks+.cue), lossless]
  • (2011) Skindred / Union Black (Alternative Metal, Ragga-Metal) [FLAC (track ...
  • Информация
    Посетители, находящиеся в группе Гости, не могут оставлять комментарии к данной публикации.