вход на сайт

Имя пользователя :
Пароль :

Восстановление пароля Регистрация
(дискография, 15CD) ЛЕНИНГРАД (+ The Tiger Lillies) (Ska, Reggae, Russian Rock, Punk) [WV (images+.cue), lossless]
Рейтинг:
(голосов: 1)



[img]{THEME}/images/logopost.png[/img]



Дискография — Ленинград (15 CD, lossless)

Исполнитель: Ленинград, The Tiger Lillies
Годы: 1999 — 2007
Страна: Россия
Жанр: Ska, Reggae, Russian Rock, Ska Punk (Ска, Ска-панк, русский рок, Регги)
Формат: WavPack (image+.cue)
Битрейт: lossless
Продолжительность: 9:55:28 часов
Обложки: включены, JPG

Об исполнителе: «Ленинград» (полное название — Группировка Ленинград) — СКА-группаиз Санкт-Петербурга. Известна, в частности, эксцентричными песнями с большим количеством мата и алкогольно-бытовой тематикой. Группа также использовала в своем творчестве обширный состав духовых инструментов: труба, саксофон, тромбон, туба. Также группа иногда расширялась за счёт саксгорнов. 25 декабря 2008 было объявлено о распаде группы. /via ru.wiki/



Список альбомов:
1999 - Мат без электричества
2000 - Дачники
2000 - Новый год
2001 - Маде ин жопа
2001 - Пуля+ (2 CD)
2002 - Пираты XXI века
2002 - Точка
2003 - Второй магаданский
2003 - Для миллионов
2004 - Бабаробот
2005 - Х..ня
2005 - Хлеб
2006 - Бабье лето
2007 - Аврора

Альбомы:

Мат без электричества
Подробнее ▼Тип альбома: Студийный альбом
Год выпуска: 1999
Формат: WV (image+.cue)
Битрейт: lossless
Продолжительность: 34:53

Tрэклист:
01. Французкая помада...(2:11)
02. Я - твой ковбой...(2:16)
03. Звезда рок-н-ролла...(2:09)
04. Батарея...(2:26)
05. Дикий мужчина...(2:37)
06. Алкоголик...(2:08)
07. Маленький мальчик...(3:16)
08. Только с тобой...(3:10)
09. Шоу-бизнес...(3:24)
10. Будем веселиться...(1:12)
11. Ду ю лав ми (дай любви)...(2:46)
12. Страдаю...(2:16)
13. Давай джазу...(2:09)
14. Мой мотоцикл (live)...(2:54)
EAC-log ▼Exact Audio Copy V0.99 prebeta 3 from 28. July 2007

EAC extraction logfile from 27. October 2007, 14:53

Ленинград / Мат без электричества

Used drive: PLEXTOR DVDR PX-716A Adapter: 1ID: 0

Read mode : Secure
Utilize accurate stream : Yes
Defeat audio cache: Yes
Make use of C2 pointers : No

Read offset correction: 30
Overread into Lead-In and Lead-Out: Yes
Fill up missing offset samples with silence : Yes
Delete leading and trailing silent blocks : No
Null samples used in CRC calculations : No
Used interface: Native Win32 interface for Win NT & 2000

Used output format : Internal WAV Routines
Sample format: 44.100 Hz; 16 Bit; Stereo


TOC of the extracted CD

Track | Start|Length| Start sector | End sector
---------------------------------------------------------
1|0:00.00 |2:10.74 | 0| 9823
2|2:10.74 |2:16.08 |9824|20031
3|4:27.07 |2:09.01 | 20032|29707
4|6:36.08 |2:25.73 | 29708|
f9ea84fcd43875cbcf42061a705f726beec0b8d3(дискография, 15CD) ЛЕНИНГРАД (+ The Tiger Lillies) (Ska, Reggae, Russian Rock, Punk) [WV (images+.cue), lossless] (дискография, 15CD) ЛЕНИНГРАД (+ The Tiger Lillies) (Ska, Reggae, Russian Rock, Punk) [WV (images+.cue), lossless] " />

Аплоадер: Админ, дата: 15-05-2010, 11:30, торрент скачан: 359 раз

Понравилась раздача? Посмотрите эти:
  • [Дискография] Ленинград (СКА, Шансон, Панк-Рок) [MP3 192-320 кбит/сек CBR]
  • (Официальная Дискография 1999-2012) Ленинград, Сергей Шнуров (Rock / Ska) [ ...
  • (Дискография) LUMEN (Punk Rock) [WavPack (image+.cue), lossless]
  • (Дискография) ДЕЛЬФИН (DOLPHIN) (Alternative) [WavPack/image+cue, lossless] ...
  • (1977) Jethro Tull / Songs from the wood (Rock, Art-Rock) [FLAC (track+ cue ...
  • (2008) Ассаи / Фаталист (Rap) [Ape(image+.cue), lossless]
  • (2008) Капа и Картель / Гламурным (Rap) [Ape(image+ cue), lossless]
  • (Дискография) Anberlin (Alternative Rock) [WAVPack (image+.cue) lossless]
  • (2010) Алиса / Ъ (The Hard Sign) (Hard Rock) [WavPack (iso.wv (image+.cue)) ...
  • (2010) Daft Punk / Tron: Legacy (Score) [FLAC (tracks+.cue) lossless]
  • (2007) Константин Никольский / Иллюзии (Rock) [APE (image + .cue), lossless ...
  • (Дискография 19CD) Daft Punk (Electronic Music, House) [FLAC (tracks+.cue), ...
  • (Дискография 2003-2008) Simple Plan (Pop-Punk) [FLAC (tracks + .cue), lossl ...
  • (2010) Zdob si Zdub / Белое вино / Красное вино (folk rock, folk punk, hard ...
  • (Дискография) Supertramp (Progressive & Art-Rock) [APE/FLAC (image/tracks+. ...
  • (2008) Юрий Наумов / Рок как будто Блюз (Blues) [FLAC (Image+.cue), lossles ...
  • (2011, 5CD Box set) Boney M / Original Album Classics (Reggae, Disco, R&B, ...
  • (Дискография, 1988-2011) Kingdom Come (Hard&Heavy,Glam Metal) [FLAC (image+ ...
  • (2010) 2Pac / Greatest Hits (Rap & Hip Hop) [APE (image+.cue), lossless]
  • (2011) Sum 41 / Screaming Bloody Murder‎ (Punk-Rock/Alternative)[FLAC (trac ...
  • (2011 15CD Box Set Digitally Remaster) Rush - Sectors (Rock, Progressive R ...
  • (1976) The Eagles / Hotel California [Japan Remastered] (Country Rock) [FLA ...
  • (2010) Кукрыниксы / Всадники Света (Punk Rock) [FLAC (tracks+.cue), lossles ...
  • (2011) Ленинград / Хна (Rock) [FLAC (tracks+.cue), lossless]
  • (2012) Crippled Black Phoenix / (Mankind) The Crafty Ape (Alternative/Indie ...
  • Информация
    Посетители, находящиеся в группе Гости, не могут оставлять комментарии к данной публикации.