вход на сайт

Имя пользователя :
Пароль :

Восстановление пароля Регистрация
(Дискография, 2000-2007) SUM 41 (Punk-Rock/Pop-Punk) [FLAC (tracks + .cue), lossless]
Рейтинг:
(голосов: 1)



[img]{THEME}/images/logopost.png[/img]



Дискография - Sum 41
Жанр: Punk-Rock / Pop-Punk
Формат: FLAC (tracks.сue)
Битрейт: lossless
Продолжительность: 04:53:45

О чуваках: Летом 1997 года четверо парней Deryck Whibley / Дерик Уибли (вокал, гитара), Steve Jocz / Стив Джоз (ударные), Dave Baksh / Дейв Бакш (гитара) и Cone McCaslin / Кон Маккаслин (бас) решили сколотить панк-рок-группу. Назвать группу решили Sum 41, по количеству летних дней которые они провели вместе, мечтая покорить музыкальный Олимп.

Альбомы:
2000 - Half Hour Of Power

Продолжительность: 00:28:59

Трэклист:
[01:07] 01. Sum 41 - Grab The Devil By The Horns And Fuck Him Up The Ass
[02:29] 02. Sum 41 - Machine Gun
[02:49] 03. Sum 41 - What I Believe
[00:43] 04. Sum 41 - T.H.T.
[03:10] 05. Sum 41 - Makes No Difference
[02:40] 06. Sum 41 - Summer
[01:30] 07. Sum 41 - 32 Ways To Die
[03:51] 08. Sum 41 - Second Chance For Max Headroom
[03:47] 09. Sum 41 - Daves Possessed Hair/Its What Were All About
[00:55] 10. Sum 41 - Ride The Chariot To The Devil
[06:52] 11. Sum 41 - Another Time Around
EAC log:▼EAC extraction logfile from 21. January 2007, 9:19 for CD
Sum 41 / Half Hour Of Power

Used drive: HL-DT-STDVD-ROM GDR8161B Adapter: 1ID: 1
Read mode : Secure with NO C2, accurate stream, disable cache
Combined read/write offset correction : 0
Overread into Lead-In and Lead-Out : Yes

Used output format : C:Program FilesFLACflac.exe (User Defined Encoder)
192 kBit/s
Additional command line options : -8 -A tukey(0.25) -A gauss(0.1875) -b 4096 -V -T "artist=%a" -T "title=%t" -T "album=%g" -T "date=%y" -T "tracknumber=%n" -T "genre=%m" %s --sector-align

Other options:
Fill up missing offset samples with silence : Yes
Delete leading and trailing silent blocks : No
Native Win32 interface for Win NT & 2000


Track1
Filename C:Audio RipsOinkSum 41 - Half Hour Of Power�1 - Grab The Devil By The Horns And Fuck Him Up The Ass.wav

Pre-gap length0:00:02.00

Peak level 93.6 %
Track quality 100.0 %
Test CRC B63C494C
Copy CRC B63C494C
Copy OK

Track2
Filename C:Audio RipsOinkSum 41 - Half Hour Of Power�2 - Machine Gun.wav

Peak level 93.6 %
Track quality 100.0 %
Test CRC B3EB846E
Copy CRC B3EB846E
Copy OK

Track3
Filename C:Audio RipsOinkSum 41 - Half Hour Of Power�3 - What I Believe.wav

Peak level 93.6 %
Track quality 100.0 %
Test CRC 5D90A205
Copy CRC 5D90A205
Copy OK

Track4
Filename C:Audio RipsOinkSum 41 - Half Hour Of Power�4 - T.H.T..wav

Peak level 83.4 %
Track quality 100.0 %
Test CRC D3DCE2E9
Copy CRC D3DCE2E9
Copy OK

Track5
Filename C:Audio RipsOinkSum 41 - Half Hour Of Power�5 - Makes No Difference.wav

Peak level 93.6 %
Track quality 100.0 %
Test CRC A362608A
Copy CRC A362608A
bc10ca9c39ffe1ad582693027d541e2dc4241adc(Дискография, 2000-2007) SUM 41 (Punk-Rock/Pop-Punk) [FLAC (tracks + .cue), lossless] (Дискография, 2000-2007) SUM 41 (Punk-Rock/Pop-Punk) [FLAC (tracks + .cue), lossless] " />

Аплоадер: Админ, дата: 17-06-2009, 01:15, торрент скачан: 359 раз

Понравилась раздача? Посмотрите эти:
  • (2012, Сборник) VA / Вечерняя Коллекция (Звуки природы) (Relax) [FLAC (trac ...
  • (Jazz) Ray Charles — The Very Best Of Ray Charles - 2000, FLAC (tracks), lo ...
  • (Soundtrack,1999) Fight Club / Бойцовский клуб - The Dust Brothers [FLAC (t ...
  • (1999) Red Hot Chili Peppers - Californication (Alternative rock, Funk) [FL ...
  • (Soundtrack,2007) The Orange Box - (Half-Life 2, Portal, Team Fortress 2) [ ...
  • (Дискография) 1981-2009 Depeche Mode (Electronic, Synthpop) [FLAC (tracks+ ...
  • (2009) The Black Eyed Peas / The E.N.D. (The Energy Never Dies) (Target Del ...
  • (2001) GORILLAZ / Gorillaz (US Edition) (Hip-Hop) [FLAC (image+cue), lossle ...
  • (Дискография) GORILLAZ (Trip-Hop) [FLAC (tracks + .cue) lossless]
  • (2010 , OST) Пипец / Kick Ass (OST) [FLAC (tracks+.cue) lossless]
  • (2008) Karunesh /Enlightenment (New Age) [FLAC (image+.cue), lossless]
  • (1988) David Grisman Quintet feat. Svend Asmussen / Svingin With Svend (Jaz ...
  • (Дискография, 1995-2006) Adiemus (Instrumental, Folk, Vocal, New Age) [FLAC ...
  • (2009) Timbaland / Shock Value II (Hip-Hop / RnB) [FLAC (tracks+.cue), loss ...
  • (2004-2006) Amy Winehouse (Rhythm & Blues/Neo-Soul, Ska, Jazz Pop) [FLAC(t ...
  • (2006) The Rasmus / Shot (Single) (Alternative Rock) [FLAC (tracks+.cue), l ...
  • (2008) Miley Cyrus - Breakout (Platinum Edition) (Pop) [FLAC (tracks+.cue), ...
  • (2009) Miley Cyrus / The Time of Our Lives (Pop) [FLAC (tracks+.cue), lossl ...
  • (2010) [AMATORY] / Инстинкт обречённых (Nu Metal) [FLAC (tracks), lossless] ...
  • (2011) Linkin Park / Iridescent (Alternative Rock) [FLAC(image+.cue), lossl ...
  • (Дискография, 2010-2011) Chelsea Grin (Deathcore) [FLAC (tracks+.cue), loss ...
  • (1999) Necrophagist / Onset Of Putrefaction (Technical Death Metal) [FLAC ( ...
  • (2011) This Will Destroy You / Tunnel Blanket (Post Rock) [FLAC (tracks+.cu ...
  • (2004) Дельфин / Запись концерта 19.11.04 (Alternative|Experimental) [FLAC ...
  • (Дискография, 2002 - 2012) Rodrigo y Gabriela (Acoustic, Flamenco, Classica ...
  • Информация
    Посетители, находящиеся в группе Гости, не могут оставлять комментарии к данной публикации.