вход на сайт

Имя пользователя :
Пароль :

Восстановление пароля Регистрация
(2004) Ex-Сектор Газа / Огненный рай (Punk-Rock) [FLAC (image+.cue), lossless]
Рейтинг:
(голосов: 1)



[img]{THEME}/images/logopost.png[/img]





Альбом: Огненный рай
Тип альбома: Студийный
Год выпуска: 2004
Страна: Россия (Воронеж)
Жанр: Punk-Rock
Формат: FLAC (image+.cue)
Битрейт: lossless
Log-файл: Присутствует
Продолжительность: 01:16:11



01. Сектор газа (03:38)
02. Хуторок (04:10)
03. Хороший день (04:25)
04. Озорной мальчишка (03:13)
05. Не дам (03:26)
06. У Яра (01:39)
07. Жена (03:54)
08. Погуляли (04:41)
09. Допился (04:02)
10. Чукча (04:20)
11. Огненный рай (03:59)
12. Она одна (03:40)
13. Девушкам (04:02)
14. Доля солдатская (04:12)
15. Ведьмы (04:02)
16. Спор (05:27)
17. Ява (04:43)
18. ХК Воронеж (03:38)
19. Оборотень (04:51)


Отчет "EAC" ▼Text
Exact Audio Copy V0.99 prebeta 4 from 23. January 2008

Отчёт EAC об извлечении, выполненном 3. мая 1989, 12:04

Ex-Сектор газа / Огненный рай

Дисковод: TSSTcorpCDDVDW SH-S203D Adapter: 0 ID: 1

Режим чтения : Достоверность
Использование точного потока : Да
Отключение кэша аудио : Да
Использование указателей C2 : Нет

Коррекция смещения при чтении : 6
Способность читать области Lead-in и Lead-out : Нет
Заполнение пропущенных сэмплов тишиной : Да
Удаление блоков с тишиной в начале и конце : Нет
При вычислениях CRC использовались нулевые сэмплы : Да
Интерфейс : Встроенный Win32-интерфейс для Win NT/2000

Выходной формат : Внутренние WAV-операции
Формат сэмплов : 44.100 Гц; 16 бит; стерео


TOC извлечённого CD

Трек | Старт | Длительность | Начальный сектор | Конечный сектор
---------------------------------------------------------------------
1 | 0:00.00 | 3:40.35 | 0 | 16534
2 | 3:40.35 | 4:12.44 | 16535 | 35478
3 | 7:53.04 | 4:27.30 | 35479 | 55533
4 | 12:20.34 | 3:15.38 | 55534 | 70196
5 | 15:35.72 | 3:28.21 | 70197 | 85817
6 | 19:04.18 | 1:41.60 | 85818 | 93452
7 | 20:46.03 | 3:56.22 | 93453 | 111174
8 | 24:42.25 | 4:43.26 | 111175 | 132425
9 | 29:25.51 | 4:04.49 | 132426 | 150774
10 | 33:30.25 | 4:22.37 | 150775 | 170461
11 | 37:52.62 | 4:01.34 |  
975db0f7994d3b862d7cf8bf8c4c1e6aa90d669a(2004) Ex-Сектор Газа / Огненный рай (Punk-Rock) [FLAC (image+.cue), lossless] (2004) Ex-Сектор Газа / Огненный рай (Punk-Rock) [FLAC (image+.cue), lossless] " />

Аплоадер: Админ, дата: 21-05-2012, 20:38, торрент скачан: 359 раз

Понравилась раздача? Посмотрите эти:
  • (2000) Lenny Kravitz / Greatest Hits (Rock, Funk) [FLAC (image+.cue), lossl ...
  • (2002) a-ha / Lifelines (Alternative Rock, Synth-pop ) [FLAC (image + .cue ...
  • (2012) Григорий Лепс / Полный вперёд (Шансон) [FLAC (image+.cue), Lossless ...
  • (1994) Joy / Grand Collection (EuroDisco) [FLAC (image+.cue) lossless]
  • (2006) Батырхан Шукенов/ Отан Ана (Pop) [FLAC (image+.cue) lossless]
  • (2006) Tokio / puls 200 (Alternative Rock / Pop Rock) [FLAC (image+.cue) lo ...
  • (2011) Within Temptation / The Unforgiving (Symphonic Gothic Metal) [FLAC ( ...
  • (2004) Genesis / Platinum Collection (Art Rock) [FLAC (image+.cue), lossles ...
  • (2011) Blues Cousins / KGB Blues (Blues Rock) [FLAC (image+.cue), lossless] ...
  • (2005) плюм-Бум / Чистая правда (Funk, Reggae, Pop-Punk) [APE(image+.cue), ...
  • (2011) АукцЫон / Юла (Rock) [APE (image+.cue), lossless]
  • (Дискография) СЕКТОР ГАЗА {11CD из серии "Коллекция" (DADC Austri ...
  • ( 2001) Воскресение / Звездная коллекция (Rock) [FLAC (image+.cue) lossless ...
  • (2001) Катя Огонёк / Дорожный роман (Шансон) [FLAC (image+.cue)]
  • (1995) Yaki-Da / Pride (Pop, Eurodance) [FLAC (image+.сue), lossless]
  • (2011) КняZz / Письмо из Трансильвании (Punk-Rock) [APE (image+.сue), lossl ...
  • (2012) Paradise Lost / Tragic Idol (Limited Edition) (Gothic Rock, Metal) [ ...
  • (2011) Paradise Lost / Draconian Times MMXI (Limited Edition) (Gothic Rock, ...
  • (2000) Парк Горького (Gorky Park) / The Best (Glam Metal/Hard Rock) [FLAC ...
  • (2008) Студия 80 / Придуманный Мир (Pop) [FLAC (image+.cue), lossless]
  • Информация
    Посетители, находящиеся в группе Гости, не могут оставлять комментарии к данной публикации.